Лицензия

MVO

1

1 сезон

Лицензия

Лицензия

13

MVO

1 сезон

Deluxe Edition

pack

Рекомендуем

30

Repack

ВАЖНО

ВАЖНО

Ghostwire

RePack

jed

RePack

fifa19

RePack

RDR2

RePack

NEED FOR SPEED™ PAYBACK

RePack

Кинопоиск HD

 Острые козырьки 6 сезон

6 сезон

FAR CRY 6

RePack

Лицензия

MVO

1

1 сезон

1 сезон

Лицензия

  

Плохой Санта 2 / Bad Santa 2 (Марк Уотерс) [2016, драма, комедия, криминал, WEB-DL 1080p] [Dub] + [AVO] Пучков (Гоблин) + [Ukr DUB]

Плохой Санта 2 через торрент pb.wtf

Размер: 3.8 GB | Добавлен: 5 лет 8 мес. назад | Торрент скачан:1229 раз
Смотреть онлайн Плохой Санта 2 | Скачать   

22-01-2017 07:40 Плохой Санта 2 Скачать торрент  

Плохой Санта 2 / Bad Santa 2
Год выпуска: 2016
Страна: США
Жанр: комедия
Продолжительность: 01:28:28
Перевод 1: Профессиональный (дублированный) [Лицензия iTunes]
Перевод 2: Одноголосый (авторский) [Д.Пучков aka Гоблин] [Без Цензуры!!!]
Перевод 3: Профессиональный (дублированный) [MEGOGO] - украинский
Cубтитры: нет

Режиссер: Марк Уотерс

В ролях: Билли Боб Торнтон, Кэти Бэйтс, Тони Кокс, Кристина Хендрикс, Бретт Келли, Райан Хансен, Дженни Зигрино, Джефф Скоурон, Кристина Розато, Майк Старр

Описание: Продолжение новогодних приключений проходимца Вилли, который в канун Рождества, как всегда, переодевается в Санта-Клауса. Ограбить очередной супермаркет в этом наряде не представляет никаких проблем. Но в Рождество случаются всякие чудеса. Каким оно будет для Вилли на этот раз?



Качество видео: WEB-DL [1080p]
Формат видео: MKV
Видео: MPEG-4 AVC Video ~5.1 Mbps 1920x1038 / 25 fps / 1.85:1 / High Profile 4.1
Аудио 1: Русский: 48 kHz, AC3 Dolby Digital, 3/2 (L,C,R,l,r) + LFE ch, ~384 kbps | Thx HDClub
Аудио 2: Русский: 48 kHz, AC3 Dolby Digital, 3/2 (L,C,R,l,r) + LFE ch, ~384 kbps
Аудио 3: Украинский: 48 kHz, AC3 Dolby Digital, 2.0 (L,R), ~ 192 Кбит/с | Thx Hurtom

Релиз-- &
Unique ID : 197102117565159509698636954463420319893 (0x94487CAE228784D697D04A56040C8895)
Complete name : E:\sources\Bad.Santa.2.2016.1080p.WEB-DL.DD5.1.x264 -TNClub.mkv
Format : Matroska
Format version : Version 4 / Version 2
File size : 3.80 GiB
Duration : 1 h 28 min
Overall bit rate : 6 145 kb/s
Movie name : Bad.Santa.2.2016.1080p.WEB-DL.DD5.1.x264 -TNClub
Encoded date : UTC 2017-01-22 05:43:27
Writing application : mkvmerge v8.2.0 ('World of Adventure') 64bit
Writing library : libebml v1.3.1 + libmatroska v1.4.2
Cover : Yes
Attachments : cover.png

Video
ID : 1
Format : AVC
Format/Info : Advanced Video Codec
Format profile : [email protected]
Format settings, CABAC : Yes
Format settings, ReFrames : 4 frames
Codec ID : V_MPEG4/ISO/AVC
Duration : 1 h 28 min
Bit rate : 5 182 kb/s
Width : 1 920 pixels
Height : 1 038 pixels
Display aspect ratio : 1.85:1
Frame rate mode : Constant
Frame rate : 25.000 FPS
Color space : YUV
Chroma subsampling : 4:2:0
Bit depth : 8 bits
Scan type : Progressive
Bits/(Pixel*Frame) : 0.104
Stream size : 3.20 GiB (84%)
Title : Bad.Santa.2.2016.1080p.WEB-DL.DD5.1.x264 -TNClub
Language : English
Default : Yes
Forced : No
Color range : Limited
Color primaries : BT.709
Transfer characteristics : BT.709
Matrix coefficients : BT.709

Audio #1
ID : 2
Format : AC-3
Format/Info : Audio Coding 3
Mode extension : CM (complete main)
Format settings, Endianness : Big
Codec ID : A_AC3
Duration : 1 h 28 min
Bit rate mode : Constant
Bit rate : 384 kb/s
Channel(s) : 6 channels
Channel positions : Front: L C R, Side: L R, LFE
Sampling rate : 48.0 kHz
Frame rate : 31.250 FPS (1536 spf)
Bit depth : 16 bits
Compression mode : Lossy
Stream size : 243 MiB (6%)
Title : [email protected] kbps - DUB iTunes
Language : Russian
Default : Yes
Forced : No

Audio #2
ID : 3
Format : AC-3
Format/Info : Audio Coding 3
Mode extension : CM (complete main)
Format settings, Endianness : Big
Codec ID : A_AC3
Duration : 1 h 28 min
Bit rate mode : Constant
Bit rate : 384 kb/s
Channel(s) : 6 channels
Channel positions : Front: L C R, Side: L R, LFE
Sampling rate : 48.0 kHz
Frame rate : 31.250 FPS (1536 spf)
Bit depth : 16 bits
Compression mode : Lossy
Stream size : 243 MiB (6%)
Title : [email protected] kbps - Гоблин
Language : Russian
Default : No
Forced : No

Audio #3
ID : 4
Format : AC-3
Format/Info : Audio Coding 3
Mode extension : CM (complete main)
Format settings, Endianness : Big
Codec ID : A_AC3
Duration : 1 h 28 min
Bit rate mode : Constant
Bit rate : 192 kb/s
Channel(s) : 2 channels
Channel positions : Front: L R
Sampling rate : 48.0 kHz
Frame rate : 31.250 FPS (1536 spf)
Bit depth : 16 bits
Compression mode : Lossy
Stream size : 122 MiB (3%)
Title : [email protected]
Language : Ukrainian
Default : No
Forced : No

Menu
00:00:00.000 : en:1
00:07:29.200 : en:2
00:14:11.040 : en:3
00:21:25.560 : en:4
00:27:56.360 : en:5
00:35:03.440 : en:6
00:41:13.440 : en:7
00:47:36.440 : en:8
00:53:49.560 : en:9
01:00:49.920 : en:10
01:07:50.200 : en:11
01:14:27.920 : en:12



Скачать Плохой Санта 2 через торрент http://i91.fastpic.ru/big/2017/0122/af/c6146e56576c3b1d0126e1222cc481af.png Скачать, смотреть онлайн Плохой Санта 2 бесплантно в хорошем качестве Описание: Продолжение новогодних приключений проходимца Вилли, который в канун Рождества, как всегда, переодевается в Санта-Клауса. ... 9.4 10 25
Info! Золотая раздача, скачанное не засчитывается.
Торрент: Зарегистрирован [2017-01-22 07:40] · скачан: 1 229 раз
Статус: √ проверено
Размер: 3.8 GB
Как cкачать? Как скачать Плохой Санта 2 через торрент | UTorrent

% Раздел Тема Автор DL S | L
Ultra HD (UHD: 2K, 4K, 8K) [ 27.75 GB ] Плохой Санта 2 / Bad Santa 2 | iTunes | 2160p bober100 Скачать
1 | 0
Фильмы без перевода [ 26.53 GB ] Плохой Санта 2 / Bad Santa 2 | | BD Remux smaster Скачать
1 | 0
Фильмы 2016 [DVDrip, WEB-DLRip, HDrip] (DUB, MVO) [ 1.42 GB ] Плохой Санта 2 / Bad Santa 2 | Лицензия | BDRip от Twi7ter Twi7ter Скачать
1 | 0
Фильмы 2016 [DVDrip, WEB-DLRip, HDrip] (DUB, MVO) [ 1.42 GB ] Плохой Санта 2 / Bad Santa 2 | Лицензия | BDRip от Twi7ter Twi7ter Скачать
1 | 0
R.G. Resident & PiratVoice - Фильмы, Видео [ 2.37 GB ] Плохой Санта 2 / Bad Santa 2 | Лицензия | BDRip-AVC от R.G.Resident Хорват Скачать
1 | 0
Фильмы 2016 [DVDrip, WEB-DLRip, HDrip] (DUB, MVO) [ 1.37 GB ] Плохой Санта 2 / Bad Santa 2 | iTunes | DLRip Ворон Скачать
1 | 0
T Фильмы 2016 [DVDrip, WEB-DLRip, HDrip] (DUB, MVO) [ 740 MB ] Плохой Санта 2 Гоблин / Bad Santa 2 | AVO | DLRip sheker187 Скачать
1 | 0



Последний раз редактировалось: killermax2013 (2017-01-22 10:46), всего редактировалось 1 раз

28-11-2019 20:33  

Отключить вcю реклaмy на сайте

22-01-2017 08:35 Плохой Санта 2 Скачать торрент  

забираем в коллекцию-спасибо



22-01-2017 09:56 Плохой Санта 2 Скачать торрент  

А с гоблином то стоит пересматривать ? а то он уже лет 10 ничего смешного не выдавал



22-01-2017 10:44 Плохой Санта 2 Скачать торрент  

Цитата:

в переводе Пучкова мат без цензуры




22-01-2017 11:03 Плохой Санта 2 Скачать торрент  

GuruBrain писал(а):

А с гоблином то стоит пересматривать ? а то он уже лет 10 ничего смешного не выдавал

Без Гоблина вообще этот фильм смотреть не имеет смысла



22-01-2017 11:20 Плохой Санта 2 Скачать торрент  

puer писал(а):

GuruBrain писал(а):

А с гоблином то стоит пересматривать ? а то он уже лет 10 ничего смешного не выдавал

Без Гоблина вообще этот фильм смотреть не имеет смысла

+1



22-01-2017 17:07 Плохой Санта 2 Скачать торрент  

подскажите, перевод гоблина из кинотеатра запись? или нормальный



22-01-2017 17:20 Плохой Санта 2 Скачать торрент  

Rashby писал(а):

подскажите, перевод гоблина из кинотеатра запись? или нормальный

нормальный



22-01-2017 23:05 Плохой Санта 2 Скачать торрент  

Перевод гоблина шикарен. Спасибо



25-01-2017 17:27 Плохой Санта 2 Скачать торрент  

Ну вот, совсем другое дело. Спасибо дорогой!



26-01-2017 09:15 Плохой Санта 2 Скачать торрент  

puer писал(а):

GuruBrain писал(а):

А с гоблином то стоит пересматривать ? а то он уже лет 10 ничего смешного не выдавал

Без Гоблина вообще этот фильм смотреть не имеет смысла

Да и с ним тоже



31-01-2017 15:20 Плохой Санта 2 Скачать торрент  

а стоит ли в дубляже смотреть фильмы , где мошонку суют в рот (и весь фильм из этого состоит) так что тут весь смысл не ходить с детьми в кинотеатр , а лопать пиво и угорать .



    Дорогой пользователь! Огромная просьба, поблагодарите релизера, оцените раздачу и оставьте свои комментарий, если Вы скачали Плохой Санта 2 через торрент бесплатно!!
    Комментировать посты могут только пользователи прошедшие не сложную регистрацию
    Показать сообщения:    


    Плохой Санта 2 через торрент
    Скачать бесплатно Плохой Санта 2
    Плохой Санта 2 скачать торрент
    Плохой Санта 2 смотреть онлайн
    Cкачать фильм Плохой Санта 2 бесплатно
    Плохой Санта 2 скачать торрент в хорошем качестве
    Плохой Санта 2 смотреть онлайн бесплатно в хорошем качестве
    Вы не можете начинать темы
    Вы не можете отвечать на сообщения
    Вы не можете редактировать свои сообщения
    Вы не можете удалять свои сообщения
    Вы не можете голосовать в опросах
    Вы не можете прикреплять файлы к сообщениям
    Вы можете скачивать файлы