Ссылка на приватное зеркало нашего сайта всего за 1$. Внимание количество ограничено!!!

2 сезон

iTunes

1 сезон

1

iTunes

iTunes

iTunes

1 сезон

RePack

30

ИГРА 18+

pack

ВАЖНО

!!Акция!!

Alien_RageХит недели

RePack

MK11
pack

Забери бонус

RePack

jed

!!Акция!!

Alien_Rage

RePack

fifa19

RePack

Assassins Creed: Odyssey

RePack

NEED FOR SPEED™ PAYBACK

4 сезон

9 сезон

Бесстыжие 9 сезон

Все сериалы

все сериалы на PB.wtf

RePack

FAR CRY 5
  

Пропащие ребята / The Lost Boys (Джоэл Шумахер) [1987, ужасы, фэнтези, комедия, BDRip 720p by msltel] MVO, DVO, AVO, VO pb.wtf

Пропащие ребята через торрент pb.wtf

Размер: 4.4 GB | Добавлен: 3 года 9 мес. назад | Торрент скачан:64 раза
Скачать  

22-01-2017 08:23 Пропащие ребята Скачать торрент  

Название: Пропащие ребята
Оригинальное название: The Lost Boys
Год выпуска: 1987
Страна: США
Жанр: ужасы, фэнтези, комедия
Продолжительность: 01:37:26
Перевод: профессиональный многоголосый, профессиональный двухголосый, авторский, любительский одноголосый

Режиссёр: Джоэл Шумахер

В ролях: Джейсон Патрик, Кори Хэйм, Дайэн Уист, Барнард Хьюз, Эдвард Херрманн, Кифер Сазерленд, Джэми Герц, Кори Фельдман, Джеймисон Ньюландер, Брук МакКартер

Описание: Банда молодых и "модных" хулиганов под предводительством обаятельного и безбашенного байкера, получив вампирское бессмертие, терроризирует население прибрежного городка. И только приезжие ребята из города, два брата, столкнувшиеся лицом к лицу со сверхъестественным злом, пытаются противостоять им...



Качество: BDRip 720p
Формат: MKV
Видео: MPEG-4 AVC, 4868 Kбит/с, 1280x534, 23,976 кадра/с
Аудио 1: русский, AC3, 192 kbps, 1 ch, 48 kHz [профессиональный многоголосый, TB3]
Аудио 2: русский, AC3, 384 kbps, 6 ch, 48 kHz [профессиональный двухголосый, HTB+]
Аудио 3: русский, AC3, 192 kbps, 2 ch, 48 kHz [авторский, Андрей Гаврилов]
Аудио 4: русский, AC3, 192 kbps, 2 ch, 48 kHz [любительский одноголосый, диктор HorrorClub]
Аудио 5: английский, AC3, 640 kbps, 6 ch, 48 kHz [оригинал]
Субтитры: английские (для слабослышащих)
Общее
Уникальный идентификатор : 221707418581924641558760040344810882108 (0xA6CB4BAEAB02EF729C28768A1E03043C)
Полное имя : D:\Video\Пропащие ребята.1987.BDRip.720p by msltel.mkv
Формат : Matroska
Версия формата : Version 4 / Version 2
Размер файла : 4,40 Гбайт
Продолжительность : 1 ч. 37 м.
Общий поток : 6471 Кбит/сек
Название фильма : Rip by msltel
Дата кодирования : UTC 2017-01-22 04:15:54
Программа кодирования : mkvmerge v8.2.0 ('World of Adventure') 64bit
Библиотека кодирования : libebml v1.3.1 + libmatroska v1.4.2

Видео
Идентификатор : 1
Формат : AVC
Формат/Информация : Advanced Video Codec
Профиль формата : High@L4.1
Параметр CABAC формата : Да
Параметр ReFrames формата : 9 кадров
Идентификатор кодека : V_MPEG4/ISO/AVC
Продолжительность : 1 ч. 37 м.
Битрейт : 4868 Кбит/сек
Ширина : 1280 пикселей
Высота : 534 пикселя
Соотношение сторон : 2,40:1
Режим частоты кадров : Постоянный
Частота кадров : 23,976 (24000/1001) кадра/сек
Цветовое пространство : YUV
Субдискретизация насыщенности : 4:2:0
Битовая глубина : 8 бит
Тип развёртки : Прогрессивная
Бит/(Пиксели*Кадры) : 0.297
Размер потока : 3,31 Гбайт (75%)
Библиотека кодирования : x264 core 146 r2538 121396c
Настройки программы : cabac=1 / ref=9 / deblock=1:-3:-2 / analyse=0x3:0x113 / me=umh / subme=11 / psy=1 / psy_rd=1.00:0.15 / mixed_ref=1 / me_range=32 / chroma_me=1 / trellis=2 / 8x8dct=1 / cqm=0 / deadzone=21,11 / fast_pskip=0 / chroma_qp_offset=-3 / threads=6 / lookahead_threads=1 / sliced_threads=0 / nr=0 / decimate=1 / interlaced=0 / bluray_compat=0 / constrained_intra=0 / bframes=9 / b_pyramid=2 / b_adapt=2 / b_bias=0 / direct=1 / weightb=1 / open_gop=0 / weightp=2 / keyint=230 / keyint_min=23 / scenecut=40 / intra_refresh=0 / rc_lookahead=40 / rc=crf / mbtree=0 / crf=20.0 / qcomp=0.60 / qpmin=0 / qpmax=69 / qpstep=4 / vbv_maxrate=62500 / vbv_bufsize=78125 / crf_max=0.0 / nal_hrd=none / filler=0 / ip_ratio=1.40 / pb_ratio=1.30 / aq=1:1.00
Язык : English
Default : Да
Forced : Нет

Аудио #1
Идентификатор : 2
Формат : AC-3
Формат/Информация : Audio Coding 3
Расширение режима : CM (complete main)
Параметр Endianness формата : Big
Идентификатор кодека : A_AC3
Продолжительность : 1 ч. 37 м.
Вид битрейта : Постоянный
Битрейт : 192 Кбит/сек
Каналы : 1 канал
Расположение каналов : Front: C
Частота : 48,0 КГц
Частота кадров : 31,250 кадров/сек (1536 spf)
Метод сжатия : С потерями
Размер потока : 134 Мбайт (3%)
Заголовок : MVO (TB3)
Язык : Russian
Default : Да
Forced : Нет

Аудио #2
Идентификатор : 3
Формат : AC-3
Формат/Информация : Audio Coding 3
Расширение режима : CM (complete main)
Параметр Endianness формата : Big
Идентификатор кодека : A_AC3
Продолжительность : 1 ч. 37 м.
Вид битрейта : Постоянный
Битрейт : 384 Кбит/сек
Каналы : 6 каналов
Расположение каналов : Front: L C R, Side: L R, LFE
Частота : 48,0 КГц
Частота кадров : 31,250 кадров/сек (1536 spf)
Метод сжатия : С потерями
Размер потока : 268 Мбайт (6%)
Заголовок : DVO (HTB+)
Язык : Russian
Default : Нет
Forced : Нет

Аудио #3
Идентификатор : 4
Формат : AC-3
Формат/Информация : Audio Coding 3
Расширение режима : CM (complete main)
Параметр Endianness формата : Big
Идентификатор кодека : A_AC3
Продолжительность : 1 ч. 37 м.
Вид битрейта : Постоянный
Битрейт : 192 Кбит/сек
Каналы : 2 канала
Расположение каналов : Front: L R
Частота : 48,0 КГц
Частота кадров : 31,250 кадров/сек (1536 spf)
Метод сжатия : С потерями
Размер потока : 134 Мбайт (3%)
Заголовок : AVO (Андрей Гаврилов)
Язык : Russian
Default : Нет
Forced : Нет

Аудио #4
Идентификатор : 5
Формат : AC-3
Формат/Информация : Audio Coding 3
Расширение режима : CM (complete main)
Параметр Endianness формата : Big
Идентификатор кодека : A_AC3
Продолжительность : 1 ч. 37 м.
Вид битрейта : Постоянный
Битрейт : 192 Кбит/сек
Каналы : 2 канала
Расположение каналов : Front: L R
Частота : 48,0 КГц
Частота кадров : 31,250 кадров/сек (1536 spf)
Метод сжатия : С потерями
Размер потока : 134 Мбайт (3%)
Заголовок : любительский одноголосый, диктор HorrorClub
Язык : Russian
Default : Нет
Forced : Нет

Аудио #5
Идентификатор : 6
Формат : AC-3
Формат/Информация : Audio Coding 3
Расширение режима : CM (complete main)
Параметр Endianness формата : Big
Идентификатор кодека : A_AC3
Продолжительность : 1 ч. 37 м.
Вид битрейта : Постоянный
Битрейт : 640 Кбит/сек
Каналы : 6 каналов
Расположение каналов : Front: L C R, Side: L R, LFE
Частота : 48,0 КГц
Частота кадров : 31,250 кадров/сек (1536 spf)
Метод сжатия : С потерями
Размер потока : 446 Мбайт (10%)
Заголовок : original
Язык : English
Default : Нет
Forced : Нет

Текст
Идентификатор : 7
Формат : UTF-8
Идентификатор кодека : S_TEXT/UTF8
Идентификатор кодека/Информация : UTF-8 Plain Text
Продолжительность : 1 ч. 36 м.
Битрейт : 49 бит/сек
Count of elements : 1137
Размер потока : 34,6 Кбайт (0%)
Заголовок : английские (для слабослышащих)
Язык : English
Default : Нет
Forced : Нет
pb.wtf



Скачать Пропащие ребята через торрент http://s013.radikal.ru/i322/1701/62/3850d95ca19f.jpg Скачать фильм Пропащие ребята через торрент бесплантно в хорошем качестве Описание: Банда молодых и "модных" хулиганов под предводительством обаятельного и безбашенного байкера, получив вампирское бессмертие, ... 7 10 3
Info! Золотая раздача, скачанное не засчитывается.
Торрент: Зарегистрирован [2017-01-22 08:23] · скачан: 64 раз
Статус: √ проверено
Размер: 4.4 GB
Как cкачать? Как скачать Пропащие ребята через торрент | qTorrent

% Раздел Тема Автор DL S | L
Фильмы [HD 720p, 1080p] (Хороший звук DUB, MVO) [ 9.72 GB ] Пропащие ребята / The Lost Boys [1987 BDRip 1080p by msltel] MVO DVO AVO VO msltel Скачать
1 | 0

28-11-2019 20:33  

Отключить всю рекламу на сайте

    Дорогой пользователь! Огромная просьба, поблагодарите релизера, оцените раздачу и оставьте свои комментарий, если Вы скачали Пропащие ребята через торрент бесплатно! Внесите свою лепту в развитие PiratBit!
    Комментировать посты могут только пользователи прошедшие не сложную регистрацию
    Показать сообщения:    

    Пропащие ребята через торрент
    Скачать бесплатно Пропащие ребята
    Пропащие ребята скачать торрент
    Пропащие ребята смотреть онлайн
    Cкачать фильм Пропащие ребята бесплатно
    Пропащие ребята скачать торрент в хорошем качестве
    Пропащие ребята смотреть онлайн бесплатно в хорошем качестве


    Вы не можете начинать темы
    Вы не можете отвечать на сообщения
    Вы не можете редактировать свои сообщения
    Вы не можете удалять свои сообщения
    Вы не можете голосовать в опросах
    Вы не можете прикреплять файлы к сообщениям
    Вы можете скачивать файлы