новый адрес пиратбит piratbit
Мега распродажа FORZA HORIZON 4 ULTIMATE+ВСЕ DLC+ОНЛАЙН всего за 499р. 349 руб. (супер цена). Внимание количество ограничено!!!

iTunes

1+1

iTunes

мы

iTunes

1

iTunes

Чернобыль

iTunes

Ральф против интернета

Лицензия

ПШазам

Лицензия

Игра престолов

Лицензия

30
pack

ВАЖНО

!!Акция!!

Alien_RageХит недели

RePack

Resident Evil 21

ИГРА 18+

pack

RePack

Metro:Exodus

!!Акция!!

Alien_Rage

RePack

fifa19

RePack

Assassins Creed: Odyssey

RePack

NEED FOR SPEED™ PAYBACK

3 сезон

9 сезон

Бесстыжие 9 сезон

Все сериалы

все сериалы на PB.wtf

RePack

FAR CRY 5
Ребята, катастрофически не хватает 1900р. для оплаты серверов за Октябрь (всвязи с блокировками трафик упал в 3 раза), 1-2р., выручайте.
  

Пролог (Ефим Дзиган) [1956, СССР, драма, VHSRip от AVP Studio] pb.wtf

Пролог через торрент pb.wtf

Размер: 746 MB | Добавлен: 2 года 9 мес. назад | Торрент скачан:6 раз
Скачать  

22-01-2017 22:10 Пролог Скачать торрент  

Пролог
Страна: СССР
Производство: Мосфильм

Жанр: драма
Год выпуска: 1956
Продолжительность: 01:39:48

Перевод: Не требуется
Cубтитры: нет
Оригинальная аудиодорожка: русский

Режиссер: Ефим Дзиган

В ролях:
Николай Плотников, Мария Пастухова, Павел Кадочников, Владимир Соловьёв, Инна Кондратьева, Виктор Авдюшко, Данута Столярская, Нина Родионова, Павел Винник, Зинаида Воркуль, Николай Граббе, Пётр Константинов, Геннадий Юдин, Владимир Колчин, Ефим Копелян, Пётр Савин, Иван Коваль-Самборский...
Об актёрах подробней

Описание:
Об одном из эпизодов первой русской революции 1905 года. После жестокой расправы с мирной демонстрацией трудового народа под руководительством попа Гапона, известной как «кровавое воскресение» направлявшейся к царю, В. И. Ленин и другие члены партии, находящиеся в эмиграции, призывают рабочих к вооруженному восстанию.

Источник: VHS
Качество видео: VHSRip
Формат видео: AVI

Видео: 576x432 (4:3), 25 fps, XviD ~ 907 kbps avg, 0.146 bit/pixel
Аудио: 48 kHz, MP3 2.0, 128 kbps

Раздача от:
Общее
Полное имя : Prolog.1956.VHSRip-745_[New-team]_by_AVP_Studio.avi
Формат : AVI
Формат/Информация : Audio Video Interleave
Размер файла : 746 Мбайт
Продолжительность : 1 ч. 39 м.
Общий поток : 1044 Кбит/сек
Программа кодирования : VirtualDubMod 1.5.10.3 | www.virtualdub-fr.org || (build 2550/release)
Библиотека кодирования : VirtualDubMod build 2550/release

Видео
Идентификатор : 0
Формат : MPEG-4 Visual
Профиль формата : Advanced Simple@L5
Параметр BVOP формата : 1
Параметр QPel формата : Нет
Параметр GMC формата : Без точки перехода
Параметр матрицы формата : Выборочная
Идентификатор кодека : XVID
Идентификатор кодека/Подсказка : XviD
Продолжительность : 1 ч. 39 м.
Битрейт : 907 Кбит/сек
Ширина : 576 пикселей
Высота : 432 пикселя
Соотношение сторон : 4:3
Частота кадров : 25,000 кадров/сек
Цветовое пространство : YUV
Субдискретизация насыщенности : 4:2:0
Битовая глубина : 8 бит
Тип развёртки : Прогрессивная
Метод сжатия : С потерями
Бит/(Пиксели*Кадры) : 0.146
Размер потока : 647 Мбайт (87%)
Библиотека кодирования : XviD 73

Аудио
Идентификатор : 1
Формат : MPEG Audio
Версия формата : Version 1
Профиль формата : Layer 3
Идентификатор кодека : 55
Идентификатор кодека/Подсказка : MP3
Продолжительность : 1 ч. 39 м.
Вид битрейта : Постоянный
Битрейт : 128 Кбит/сек
Каналы : 2 канала
Частота : 48,0 КГц
Метод сжатия : С потерями
Размер потока : 91,4 Мбайт (12%)
Выравнивание : Соединение по промежуткам
Продолжительность промежутка : 40 мс. (1,00 видеокадр)
Время предзагрузки промежутка : 504 мс.
Библиотека кодирования : LAME3.99r
Настройки программы : -m s -V 4 -q 2 -lowpass 17 -b 128
pb.wtf



Скачать Пролог через торрент http://s42.radikal.ru/i096/1701/4f/d0968efed756.png Скачать фильм Пролог через торрент бесплантно в хорошем качестве Описание:Об одном из эпизодов первой русской революции 1905 года. После жестокой расправы с мирной демонстрацией трудового народа под ... 5 10 1
Info! Золотая раздача, скачанное не засчитывается.
Торрент: Зарегистрирован [2017-01-22 22:10] · скачан: 6 раз
Статус: √ проверено
Размер: 746 MB
Как cкачать? Как скачать Пролог через торрент | qTorrent

% Раздел Тема Автор DL S | L
S.T.A.L.K.E.R. [ 3.53 GB ] S.T.A.L.K.E.R.: Shadow of Chernobyl - Тайна Зоны: История Стрелка. Пролог [v0.8.7.5] [RePack RUS] by SeregA-Lus Grizzly93rus Скачать
3 | 0
S.T.A.L.K.E.R. [ 3.25 GB ] S.T.A.L.K.E.R.: Call of Pripyat - AZM пролог [Repack RUS] by SeregA-Lus SeregA_Lus Скачать
2 | 0
S.T.A.L.K.E.R. [ 3.54 GB ] S.T.A.L.K.E.R.: Shadow of Chernobyl - Рhysical Рrotection - История Борланда [Repack RUS] от SeregA-Lus SeregA_Lus Скачать
10 | 0
S.T.A.L.K.E.R. [ 3.83 GB ] S.T.A.L.K.E.R.: Call of Pripyat - Камень Преткновения. Пролог [Repack RUS] SeregA_Lus Скачать
19 | 0
Кино СССР [ 1.46 GB ] Пролог [1956 СССР VHSRip-AVC от AVP Studio] AVP Studio Скачать
1 | 0
Кино СССР [ 1.46 GB ] Пролог [1956 СССР VHSRip от AVP Studio] AVP Studio Скачать
1 | 0
S.T.A.L.K.E.R. [ 2.86 GB ] S.T.A.L.K.E.R.: Call of Pripyat - Начало. Пролог к "Проект Отступник" [Repack RUS] от SeregA-Lus SeregA_Lus Скачать
1 | 0


>> Регистрируемся здесь <<






Отзывы и комментарии о схеме читаем и пишем здесь: ---> Отзывы и комментарии о схеме

Новые благодарочки в телеграм довольных пользователей:
скриншот   скриншот   скриншот   скриншот   скриншот
    Дорогой пользователь! Огромная просьба, поблагодарите релизера, оцените раздачу и оставьте свои комментарий, если Вы скачали Пролог через торрент бесплатно! Внесите свою лепту в развитие PiratBit!
    Комментировать посты могут только пользователи прошедшие не сложную регистрацию
    Показать сообщения:    

    Пролог через торрент
    Скачать бесплатно Пролог
    Пролог скачать торрент
    Пролог смотреть онлайн
    Cкачать фильм Пролог бесплатно
    Пролог скачать торрент в хорошем качестве
    Пролог смотреть онлайн бесплатно в хорошем качестве


    Вы не можете начинать темы
    Вы не можете отвечать на сообщения
    Вы не можете редактировать свои сообщения
    Вы не можете удалять свои сообщения
    Вы не можете голосовать в опросах
    Вы не можете прикреплять файлы к сообщениям
    Вы можете скачивать файлы