Ссылка на приватное зеркало нашего сайта всего за 1$. Внимание количество ограничено!!!

2 сезон

iTunes

1 сезон

1

2 сезон

2 сезон

iTunes

1 сезон

RePack

30

Ultimate

ВАЖНО

ИГРА 18+

pack

RePack

MK11
pack

Забери бонус

RePack

jed

!!Акция!!

Alien_Rage

RePack

fifa19

RePack

Assassins Creed: Odyssey

RePack

NEED FOR SPEED™ PAYBACK

4 сезон

9 сезон

Бесстыжие 9 сезон

Все сериалы

все сериалы на PB.wtf

RePack

FAR CRY 5
  

(EuroDance|EuroHouse|HipHop) Dr. Alban Студийные альбомы - 5CD (1990-1997) [FLAC (image + .cue), lossless] pb.wtf

через торрент pb.wtf

Размер: 1.86 GB | Добавлен: 10 лет назад | Торрент скачан:104 раза
Скачать  

20-09-2010 11:35 Скачать торрент  

Dr. Alban Студийные альбомы (1990-1997)



Страна: Германия
Жанр: EuroDance|EuroHouse|HipHop
Год выпуска: 1997
Формат: FLAC (image + .cue)
Битрейт аудио: lossless
Продолжительность: 04:23:31


Год выпуска диска: 1991
Производитель диска: Germany, BMG/Logic, 261 391
Аудио кодек: FLAC
Тип рипа: image+.cue
Битрейт аудио: lossless
Сканы: прилагаютcя
Продолжительность: 47:25
Tracklist:
1. The Alban Prelude 1:37
2. U & Mi 3:47
3. No Coke 6:46
4. Sweet Reggae Music 5:29
5. Hello Afrika 5:48
6. Stop The Pollution 3:45
7. Our Father (Pater Noster) 4:47
8. Proud! (To Be Afrikan) 4:20
9. Groove Machine II 2:12
10. U & Mi Remix 5:05
11. No Coke (Float Remix) 3:49
Exact Audio Copy V0.99 prebeta 5 from 4. May 2009
EAC extraction logfile from 3. August 2010, 22:31
Dr. Alban / Hello Afrika - The Album (261 391)
Used drive : PIONEER DVD-RW DVR-105 Adapter: 0 ID: 1
Read mode : Secure
Utilize accurate stream : Yes
Defeat audio cache : Yes
Make use of C2 pointers : No
Read offset correction : 48
Overread into Lead-In and Lead-Out : No
Fill up missing offset samples with silence : Yes
Delete leading and trailing silent blocks : No
Null samples used in CRC calculations : Yes
Used interface : Native Win32 interface for Win NT & 2000
Used output format : User Defined Encoder
Selected bitrate : 128 kBit/s
Quality : High
Add ID3 tag : No
Command line compressor : C:\Program Files\Exact Audio Copy 5\Flac\flac.exe
Additional command line options : -8 -V %s
TOC of the extracted CD
Track | Start | Length | Start sector | End sector
---------------------------------------------------------
1 | 0:00.33 | 1:37.30 | 33 | 7337
2 | 1:37.63 | 3:47.02 | 7338 | 24364
3 | 5:24.65 | 6:46.20 | 24365 | 54834
4 | 12:11.10 | 5:29.10 | 54835 | 79519
5 | 17:40.20 | 5:48.55 | 79520 | 105674
6 | 23:29.00 | 3:45.13 | 105675 | 122562
7 | 27:14.13 | 4:47.52 | 122563 | 144139
8 | 32:01.65 | 4:20.60 | 144140 | 163699
9 | 36:22.50 | 2:12.25 | 163700 | 173624
10 | 38:35.00 | 5:05.23 | 173625 | 196522
11 | 43:40.23 | 3:49.10 | 196523 | 213707
Range status and errors
Selected range
Filename C:\Olaf der Weisse\Dr. Alban . 1991 . Hello Afrika - The Album (261 391)\Dr. Alban . 1991 . Hello Afrika - The Album (261 391).wav
Peak level 96.9 %
Range quality 99.9 %
Test CRC 7CF184E3
Copy CRC 7CF184E3
Copy OK
No errors occurred
AccurateRip summary
Track 1 accurately ripped (confidence 25) [2C0BA8BE]
Track 2 accurately ripped (confidence 26) [A44C824D]
Track 3 accurately ripped (confidence 27) [B99960EE]
Track 4 accurately ripped (confidence 26) [AA184602]
Track 5 accurately ripped (confidence 25) [51D44F60]
Track 6 accurately ripped (confidence 24) [7278FAB0]
Track 7 accurately ripped (confidence 26) [3A0A4495]
Track 8 accurately ripped (confidence 26) [B8AE9618]
Track 9 accurately ripped (confidence 26) [6450E5AF]
Track 10 accurately ripped (confidence 26) [C7B705D4]
Track 11 accurately ripped (confidence 26) [7E99125F]
All tracks accurately ripped
End of status report
REM GENRE Reggae
REM DATE 1991
REM DISCID 830B210B
REM COMMENT "ExactAudioCopy v0.99pb5"
PERFORMER "Dr. Alban"
TITLE "Hello Afrika - The Album (261 391)"
FILE "Dr. Alban . 1991 . Hello Afrika - The Album (261 391).flac" WAVE
TRACK 01 AUDIO
TITLE "The Alban Prelude"
PERFORMER "Dr. Alban"
INDEX 00 00:00:00
INDEX 01 00:00:33
TRACK 02 AUDIO
TITLE "U & Mi"
PERFORMER "Dr. Alban"
INDEX 01 01:37:63
TRACK 03 AUDIO
TITLE "No Coke"
PERFORMER "Dr. Alban"
INDEX 01 05:24:65
TRACK 04 AUDIO
TITLE "Sweet Reggae Music"
PERFORMER "Dr. Alban"
INDEX 00 12:06:40
INDEX 01 12:11:10
TRACK 05 AUDIO
TITLE "Hello Afrika"
PERFORMER "Dr. Alban"
INDEX 00 17:38:48
INDEX 01 17:40:20
TRACK 06 AUDIO
TITLE "Stop The Pollution"
PERFORMER "Dr. Alban"
INDEX 00 23:26:08
INDEX 01 23:29:00
TRACK 07 AUDIO
TITLE "Our Father (Pather Noster)"
PERFORMER "Dr. Alban"
INDEX 00 27:10:38
INDEX 01 27:14:13
TRACK 08 AUDIO
TITLE "Proud! (To Be Afrikan)"
PERFORMER "Dr. Alban"
INDEX 00 31:59:18
INDEX 01 32:01:65
TRACK 09 AUDIO
TITLE "Groove Machine 2"
PERFORMER "Dr. Alban"
INDEX 00 36:19:33
INDEX 01 36:22:50
TRACK 10 AUDIO
TITLE "U & Mi Remix"
PERFORMER "Dr. Alban"
INDEX 00 38:32:30
INDEX 01 38:35:00
TRACK 11 AUDIO
TITLE "No Coke (Float Remix)"
PERFORMER "Dr. Alban"
INDEX 00 43:38:03
INDEX 01 43:40:23

Год выпуска диска: 1993
Производитель диска: Germany, BMG/Logic, 74321 13565 2
Аудио кодек: FLAC
Тип рипа: image+.cue
Битрейт аудио: lossless
Сканы: прилагаютcя
Продолжительность: 49:41
Tracklist:

1. Introduction 1:45
2. It's My Life 4:00
3. One Love 4:00
4. Sing Hallelujah! 4:00
5. Mata Oh A Eh 4:20
6. Reggae Gone Ragga 4:01
7. Om We Rembwe Ike 4:47
8. Hard To Choose 3:53
9. Cash Money 3:36
10. Roll Down Di Rubber Man 5:39
11. It's My Life (Remix) 4:32
12. One Love (Remix) 4:30
Exact Audio Copy V0.99 prebeta 5 from 4. May 2009
EAC extraction logfile from 4. August 2010, 14:14
Dr. Alban / One Love - The Album (Second Edition) (74321 13565 2)
Used drive : PIONEER DVD-RW DVR-105 Adapter: 0 ID: 1
Read mode : Secure
Utilize accurate stream : Yes
Defeat audio cache : Yes
Make use of C2 pointers : No
Read offset correction : 48
Overread into Lead-In and Lead-Out : No
Fill up missing offset samples with silence : Yes
Delete leading and trailing silent blocks : No
Null samples used in CRC calculations : Yes
Used interface : Native Win32 interface for Win NT & 2000
Used output format : User Defined Encoder
Selected bitrate : 128 kBit/s
Quality : High
Add ID3 tag : No
Command line compressor : C:\Program Files\Exact Audio Copy 5\Flac\flac.exe
Additional command line options : -8 -V %s
TOC of the extracted CD
Track | Start | Length | Start sector | End sector
---------------------------------------------------------
1 | 0:00.00 | 1:45.28 | 0 | 7902
2 | 1:45.28 | 4:01.37 | 7903 | 26014
3 | 5:46.65 | 4:14.55 | 26015 | 45119
4 | 10:01.45 | 4:02.15 | 45120 | 63284
5 | 14:03.60 | 4:30.38 | 63285 | 83572
6 | 18:34.23 | 4:02.62 | 83573 | 101784
7 | 22:37.10 | 4:48.63 | 101785 | 123447
8 | 27:25.73 | 3:55.05 | 123448 | 141077
9 | 31:21.03 | 3:37.45 | 141078 | 157397
10 | 34:58.48 | 5:41.65 | 157398 | 183037
11 | 40:40.38 | 4:35.40 | 183038 | 203702
12 | 45:16.03 | 4:31.55 | 203703 | 224082
Range status and errors
Selected range
Filename C:\Olaf der Weisse\Dr. Alban . 1993 . One Love - The Album (Second Edition) (74321 13565 2)\Dr. Alban . 1993 . One Love - The Album (Second Edition) (74321 13565 2).wav
Peak level 100.0 %
Range quality 100.0 %
Test CRC 2FD7B995
Copy CRC 2FD7B995
Copy OK
No errors occurred
AccurateRip summary
Track 1 accurately ripped (confidence 14) [9CB2CF2A]
Track 2 accurately ripped (confidence 14) [63B27062]
Track 3 accurately ripped (confidence 14) [431BA866]
Track 4 accurately ripped (confidence 12) [A7C0F174]
Track 5 accurately ripped (confidence 13) [2479FD34]
Track 6 accurately ripped (confidence 13) [DED13202]
Track 7 accurately ripped (confidence 13) [32A82AEC]
Track 8 accurately ripped (confidence 13) [C65BC60B]
Track 9 accurately ripped (confidence 13) [3D4143F4]
Track 10 accurately ripped (confidence 12) [7557B80A]
Track 11 accurately ripped (confidence 13) [82AFD49F]
Track 12 accurately ripped (confidence 12) [20753A8E]
All tracks accurately ripped
End of status report
REM GENRE Eurodance
REM DATE 1993
REM DISCID 950BAB0C
REM COMMENT "ExactAudioCopy v0.99pb5"
PERFORMER "Dr. Alban"
TITLE "One Love - The Album (Second Edition) (74321 13565 2)"
FILE "Dr. Alban . 1993 . One Love - The Album (Second Edition) (74321 13565 2).flac" WAVE
TRACK 01 AUDIO
TITLE "Introduction"
PERFORMER "Dr. Alban"
INDEX 01 00:00:00
TRACK 02 AUDIO
TITLE "It's My Life"
PERFORMER "Dr. Alban"
INDEX 00 01:45:19
INDEX 01 01:45:28
TRACK 03 AUDIO
TITLE "One Love"
PERFORMER "Dr. Alban"
INDEX 00 05:46:56
INDEX 01 05:46:65
TRACK 04 AUDIO
TITLE "Sing Hallelujah!"
PERFORMER "Dr. Alban"
INDEX 00 10:01:36
INDEX 01 10:01:45
TRACK 05 AUDIO
TITLE "Mata Oh A Eh"
PERFORMER "Dr. Alban"
INDEX 00 14:03:51
INDEX 01 14:03:60
TRACK 06 AUDIO
TITLE "Reggae Gone Ragga"
PERFORMER "Dr. Alban"
INDEX 00 18:34:14
INDEX 01 18:34:23
TRACK 07 AUDIO
TITLE "Om We Rembwe Ike"
PERFORMER "Dr. Alban"
INDEX 00 22:37:01
INDEX 01 22:37:10
TRACK 08 AUDIO
TITLE "Hard To Choose"
PERFORMER "Dr. Alban"
INDEX 00 27:25:64
INDEX 01 27:25:73
TRACK 09 AUDIO
TITLE "Cash Money"
PERFORMER "Dr. Alban"
INDEX 00 31:20:69
INDEX 01 31:21:03
TRACK 10 AUDIO
TITLE "Roll Down Di Rubber Man"
PERFORMER "Dr. Alban"
INDEX 00 34:58:39
INDEX 01 34:58:48
TRACK 11 AUDIO
TITLE "It's My Life (Remix)"
PERFORMER "Dr. Alban"
INDEX 00 40:40:29
INDEX 01 40:40:38
TRACK 12 AUDIO
TITLE "One Love (Remix)"
PERFORMER "Dr. Alban"
INDEX 00 45:10:11
INDEX 01 45:16:03


Год выпуска диска: 1994
Производитель диска: Germany, BMG/Cheiron, 74321 18799 2)
Аудио кодек: FLAC
Тип рипа: image+.cue
Битрейт аудио: lossless
Сканы: прилагаютcя
Продолжительность: 52:00
Tracklist:

1. Hard Pan Di Drums 6:22
2. Look Who's Talking 3:13
3. Free Up Soweto 3:24
4. Away From Home 3:45
5. Gimme Dat Lovin 4:06
6. Let The Beat Go On 3:56
7. Fire 3:41
8. Home Sweet Home 3:11
9. Go See The Dentist 4:27
10. Sweet Little Girl 3:05
11. Plastic Smile 3:42
12. Awillawillawillahey 4:10
13. Look Who's Talking (Stone's Radio) 4:07
X Lossless Decoder version 20100828 (120.6)
XLD extraction logfile from 2010-08-31 23:19:20 +0400
Dr. Alban / Look Who's Talking! The Album
Used drive : MATSHITA DVD-R UJ-825 (revision DBN7)
Use cdparanoia mode : YES (CDParanoia III 10.2 engine)
Disable audio cache : OK for the drive with cache less than 2750KB
Make use of C2 pointers : NO
Read offset correction : 102
Max retry count : 100
Gap status : Analyzed, Appended
TOC of the extracted CD
Track | Start | Length | Start sector | End sector
---------------------------------------------------------
1 | 00:00:00 | 06:24:10 | 0 | 28809
2 | 06:24:10 | 03:16:28 | 28810 | 43537
3 | 09:40:38 | 03:26:52 | 43538 | 59039
4 | 13:07:15 | 03:49:58 | 59040 | 76272
5 | 16:56:73 | 04:09:52 | 76273 | 94999
6 | 21:06:50 | 03:57:68 | 95000 | 112842
7 | 25:04:43 | 03:45:50 | 112843 | 129767
8 | 28:50:18 | 03:15:55 | 129768 | 144447
9 | 32:05:73 | 04:40:52 | 144448 | 165499
10 | 36:46:50 | 03:09:23 | 165500 | 179697
11 | 39:55:73 | 03:46:50 | 179698 | 196697
12 | 43:42:48 | 04:15:62 | 196698 | 215884
13 | 47:58:35 | 04:07:70 | 215885 | 234479
All Tracks
Filename : /Volumes/TB/ RIP/Olaf der Weisse/Dr. Alban . 1994 . Look Who's Talking! The Album/Look Who's Talking! The Album.flac
CRC32 hash (test run) : 358A78F0
CRC32 hash : 358A78F0
CRC32 hash (skip zero) : D778D24B
Statistics
Read error : 0
Skipped (treated as error) : 0
Edge jitter error (maybe fixed) : 0
Atom jitter error (maybe fixed) : 0
Drift error (maybe fixed) : 0
Dropped bytes error (maybe fixed) : 0
Duplicated bytes error (maybe fixed) : 0
Inconsistency in error sectors : 0
Track 01
Pre-gap length : 00:02:00
CRC32 hash (test run) : A2929134
CRC32 hash : A2929134
CRC32 hash (skip zero) : 964BA70E
AccurateRip signature : C25E3268
->Accurately ripped! (confidence 55)
Statistics
Read error : 0
Skipped (treated as error) : 0
Edge jitter error (maybe fixed) : 0
Atom jitter error (maybe fixed) : 0
Drift error (maybe fixed) : 0
Dropped bytes error (maybe fixed) : 0
Duplicated bytes error (maybe fixed) : 0
Inconsistency in error sectors : 0
Track 02
Pre-gap length : 00:02:35
CRC32 hash (test run) : 05B3499B
CRC32 hash : 05B3499B
CRC32 hash (skip zero) : 7FCB8D87
AccurateRip signature : 6AC43FF0
->Accurately ripped! (confidence 58)
Statistics
Read error : 0
Skipped (treated as error) : 0
Edge jitter error (maybe fixed) : 0
Atom jitter error (maybe fixed) : 0
Drift error (maybe fixed) : 0
Dropped bytes error (maybe fixed) : 0
Duplicated bytes error (maybe fixed) : 0
Inconsistency in error sectors : 0
Track 03
Pre-gap length : 00:03:10
CRC32 hash (test run) : 203C9355
CRC32 hash : 203C9355
CRC32 hash (skip zero) : A5A83070
AccurateRip signature : 73677573
->Accurately ripped! (confidence 57)
Statistics
Read error : 0
Skipped (treated as error) : 0
Edge jitter error (maybe fixed) : 0
Atom jitter error (maybe fixed) : 0
Drift error (maybe fixed) : 0
Dropped bytes error (maybe fixed) : 0
Duplicated bytes error (maybe fixed) : 0
Inconsistency in error sectors : 0
Track 04
Pre-gap length : 00:02:50
CRC32 hash (test run) : B48651C9
CRC32 hash : B48651C9
CRC32 hash (skip zero) : B9190696
AccurateRip signature : B3F27C29
->Accurately ripped! (confidence 57)
Statistics
Read error : 0
Skipped (treated as error) : 0
Edge jitter error (maybe fixed) : 0
Atom jitter error (maybe fixed) : 0
Drift error (maybe fixed) : 0
Dropped bytes error (maybe fixed) : 0
Duplicated bytes error (maybe fixed) : 0
Inconsistency in error sectors : 0
Track 05
Pre-gap length : 00:02:08
CRC32 hash (test run) : 728D1249
CRC32 hash : 728D1249
CRC32 hash (skip zero) : 147B7C0F
AccurateRip signature : C3D18B6A
->Accurately ripped! (confidence 56)
Statistics
Read error : 0
Skipped (treated as error) : 0
Edge jitter error (maybe fixed) : 0
Atom jitter error (maybe fixed) : 0
Drift error (maybe fixed) : 0
Dropped bytes error (maybe fixed) : 0
Duplicated bytes error (maybe fixed) : 0
Inconsistency in error sectors : 0
Track 06
Pre-gap length : 00:02:25
CRC32 hash (test run) : ECF215AA
CRC32 hash : ECF215AA
CRC32 hash (skip zero) : 9BA85038
AccurateRip signature : 981952AF
->Accurately ripped! (confidence 58)
Statistics
Read error : 0
Skipped (treated as error) : 0
Edge jitter error (maybe fixed) : 0
Atom jitter error (maybe fixed) : 0
Drift error (maybe fixed) : 0
Dropped bytes error (maybe fixed) : 0
Duplicated bytes error (maybe fixed) : 0
Inconsistency in error sectors : 0
Track 07
Pre-gap length : 00:02:20
CRC32 hash (test run) : 8337D338
CRC32 hash : 8337D338
CRC32 hash (skip zero) : 1FEF9A71
AccurateRip signature : 638F7188
->Accurately ripped! (confidence 57)
Statistics
Read error : 0
Skipped (treated as error) : 0
Edge jitter error (maybe fixed) : 0
Atom jitter error (maybe fixed) : 0
Drift error (maybe fixed) : 0
Dropped bytes error (maybe fixed) : 0
Duplicated bytes error (maybe fixed) : 0
Inconsistency in error sectors : 0
Track 08
Pre-gap length : 00:02:58
CRC32 hash (test run) : D4D695D4
CRC32 hash : D4D695D4
CRC32 hash (skip zero) : D47FD89F
AccurateRip signature : B83E9D67
->Accurately ripped! (confidence 59)
Statistics
Read error : 0
Skipped (treated as error) : 0
Edge jitter error (maybe fixed) : 0
Atom jitter error (maybe fixed) : 0
Drift error (maybe fixed) : 0
Dropped bytes error (maybe fixed) : 0
Duplicated bytes error (maybe fixed) : 0
Inconsistency in error sectors : 0
Track 09
Pre-gap length : 00:02:23
CRC32 hash (test run) : F5E6AFCA
CRC32 hash : F5E6AFCA
CRC32 hash (skip zero) : 985E5757
AccurateRip signature : DE1841E0
->Accurately ripped! (confidence 59)
Statistics
Read error : 0
Skipped (treated as error) : 0
Edge jitter error (maybe fixed) : 0
Atom jitter error (maybe fixed) : 0
Drift error (maybe fixed) : 0
Dropped bytes error (maybe fixed) : 0
Duplicated bytes error (maybe fixed) : 0
Inconsistency in error sectors : 0
Track 10
Pre-gap length : 00:03:00
CRC32 hash (test run) : F4309647
CRC32 hash : F4309647
CRC32 hash (skip zero) : 420E032F
AccurateRip signature : 44BDC93E
->Accurately ripped! (confidence 57)
Statistics
Read error : 0
Skipped (treated as error) : 0
Edge jitter error (maybe fixed) : 0
Atom jitter error (maybe fixed) : 0
Drift error (maybe fixed) : 0
Dropped bytes error (maybe fixed) : 0
Duplicated bytes error (maybe fixed) : 0
Inconsistency in error sectors : 0
Track 11
Pre-gap length : 00:02:10
CRC32 hash (test run) : 240BEB1B
CRC32 hash : 240BEB1B
CRC32 hash (skip zero) : 40BAE60C
AccurateRip signature : 4D921AE0
->Accurately ripped! (confidence 57)
Statistics
Read error : 0
Skipped (treated as error) : 0
Edge jitter error (maybe fixed) : 0
Atom jitter error (maybe fixed) : 0
Drift error (maybe fixed) : 0
Dropped bytes error (maybe fixed) : 0
Duplicated bytes error (maybe fixed) : 0
Inconsistency in error sectors : 0
Track 12
Pre-gap length : 00:02:30
CRC32 hash (test run) : 5FB5AF10
CRC32 hash : 5FB5AF10
CRC32 hash (skip zero) : 6FCA4EFF
AccurateRip signature : 4BB6BF87
->Accurately ripped! (confidence 55)
Statistics
Read error : 0
Skipped (treated as error) : 0
Edge jitter error (maybe fixed) : 0
Atom jitter error (maybe fixed) : 0
Drift error (maybe fixed) : 0
Dropped bytes error (maybe fixed) : 0
Duplicated bytes error (maybe fixed) : 0
Inconsistency in error sectors : 0
Track 13
Pre-gap length : 00:02:12
CRC32 hash (test run) : FFCAFAB5
CRC32 hash : FFCAFAB5
CRC32 hash (skip zero) : 2CB6530A
AccurateRip signature : A56BF708
->Accurately ripped! (confidence 55)
Statistics
Read error : 0
Skipped (treated as error) : 0
Edge jitter error (maybe fixed) : 0
Atom jitter error (maybe fixed) : 0
Drift error (maybe fixed) : 0
Dropped bytes error (maybe fixed) : 0
Duplicated bytes error (maybe fixed) : 0
Inconsistency in error sectors : 0
No errors occurred
End of status report
TITLE "Look Who's Talking! The Album"
PERFORMER "Dr. Alban"
REM GENRE "Electronica/Dance"
REM DATE 1994
REM DISCNUMBER 1
REM TOTALDISCS 1
REM DISCID C20C360D
FILE "Look Who's Talking! The Album.flac" WAVE
TRACK 01 AUDIO
TITLE "Hard Pan DI Drums"
ISRC SERHD9405010
INDEX 01 00:00:00
TRACK 02 AUDIO
TITLE "Look Who's Talking"
ISRC SERHD9405020
INDEX 00 06:21:50
INDEX 01 06:24:10
TRACK 03 AUDIO
TITLE "Free Up Soweto"
ISRC SERHD9405030
INDEX 00 09:37:28
INDEX 01 09:40:38
TRACK 04 AUDIO
TITLE "Away From Home"
ISRC SERHD9405040
INDEX 00 13:04:40
INDEX 01 13:07:15
TRACK 05 AUDIO
TITLE "Gimme Dat Lovin"
ISRC SERHD9405050
INDEX 00 16:54:65
INDEX 01 16:56:73
TRACK 06 AUDIO
TITLE "Let The Beat Go On"
ISRC SERHD9405060
INDEX 00 21:04:25
INDEX 01 21:06:50
TRACK 07 AUDIO
TITLE "Fire"
ISRC SERHD9405070
INDEX 00 25:02:23
INDEX 01 25:04:43
TRACK 08 AUDIO
TITLE "Home Sweet Home"
ISRC SERHD9405080
INDEX 00 28:47:35
INDEX 01 28:50:18
TRACK 09 AUDIO
TITLE "Go See The Dentist"
ISRC SERHD9405100
INDEX 00 32:03:50
INDEX 01 32:05:73
TRACK 10 AUDIO
TITLE "Sweet Little Girl"
ISRC SERHD9405100
INDEX 00 36:43:50
INDEX 01 36:46:50
TRACK 11 AUDIO
TITLE "Plastic Smile"
ISRC SERHD9405110
INDEX 00 39:53:63
INDEX 01 39:55:73
TRACK 12 AUDIO
TITLE "Awillawillawillahey"
ISRC SERHD9405120
INDEX 00 43:40:18
INDEX 01 43:42:48
TRACK 13 AUDIO
TITLE "Look Who's Talking"
ISRC SERHD9405120
INDEX 00 47:56:23
INDEX 01 47:58:35


Год выпуска диска: 1/1996
Производитель диска: Germany, BMG/dr. records, 74321 36131 2
Аудио кодек: FLAC
Тип рипа: image+.cue
Битрейт аудио: lossless
Сканы: прилагаютcя
Продолжительность: 54:58
Tracklist:

1. Born In Africa (Original Radio Version) 3:30
2. Riddle Of Life 2:42
3. Alabalaba (Woman'a'Sexy) 3:19
4. Hallelujah Day 3:18
5. Rock Steady (Pupulala) 4:16
6. I Feel The Music 3:16
7. Then I Fell In Love 3:09
8. I Said It Once 4:05
9. Rich Man / Poor Man 3:10
10. This Time I'm Free 3:50
11. So Long 3:39
12. Feel Like Making Love 5:01
13. Rock The Woman / Shake It (Todd Terry Mix) 3:29
14. This Time I'm Free (Todd Terry Remix-Edit) 4:17
15. Born In Africa (Pierre J's Radio Remix) 3:40
Exact Audio Copy V0.99 prebeta 4 from 23. January 2008
EAC extraction logfile from 9. August 2010, 13:33
Dr. Alban / Born in Africa (74321 36131 2)
Used drive : HL-DT-STDVDRW GSA-S10N Adapter: 0 ID: 1
Read mode : Secure
Utilize accurate stream : Yes
Defeat audio cache : Yes
Make use of C2 pointers : No
Read offset correction : 667
Overread into Lead-In and Lead-Out : No
Fill up missing offset samples with silence : Yes
Delete leading and trailing silent blocks : No
Null samples used in CRC calculations : Yes
Used interface : Installed external ASPI interface
Used output format : User Defined Encoder
Selected bitrate : 768 kBit/s
Quality : High
Add ID3 tag : No
Command line compressor : C:\Program Files\Exact Audio Copy\Flac\flac.exe
Additional command line options : -8 -V -T "ARTIST=%a" -T "TITLE=%t" -T "ALBUM=%g" -T "DATE=%y" -T "TRACKNUMBER=%n" -T "GENRE=%m" -T "COMMENT=%e" %s -o %d
TOC of the extracted CD
Track | Start | Length | Start sector | End sector
---------------------------------------------------------
1 | 0:00.32 | 3:31.23 | 32 | 15879
2 | 3:31.55 | 2:43.47 | 15880 | 28151
3 | 6:15.27 | 3:21.18 | 28152 | 43244
4 | 9:36.45 | 3:17.72 | 43245 | 58091
5 | 12:54.42 | 4:18.03 | 58092 | 77444
6 | 17:12.45 | 3:17.25 | 77445 | 92244
7 | 20:29.70 | 3:11.05 | 92245 | 106574
8 | 23:41.00 | 4:07.05 | 106575 | 125104
9 | 27:48.05 | 3:12.10 | 125105 | 139514
10 | 31:00.15 | 3:50.65 | 139515 | 156829
11 | 34:51.05 | 3:40.22 | 156830 | 173351
12 | 38:31.27 | 5:02.30 | 173352 | 196031
13 | 43:33.57 | 3:31.03 | 196032 | 211859
14 | 47:04.60 | 4:17.67 | 211860 | 231201
15 | 51:22.52 | 3:40.28 | 231202 | 247729
Range status and errors
Selected range
Filename C:\Olaf der Weisse\Dr. Alban . 1996 . Born in Africa (74321 36131 2)\Dr. Alban . 1996 . Born in Africa (74321 36131 2).wav
Peak level 100.0 %
Range quality 99.9 %
Test CRC B778C364
Copy CRC B778C364
Copy OK
No errors occurred
AccurateRip summary
Track 1 accurately ripped (confidence 9) [5AAC53A6]
Track 2 accurately ripped (confidence 9) [633074D7]
Track 3 accurately ripped (confidence 9) [80B1F5F5]
Track 4 accurately ripped (confidence 9) [BF5EE851]
Track 5 accurately ripped (confidence 9) [96EF3A1A]
Track 6 accurately ripped (confidence 9) [C4C5ECAA]
Track 7 accurately ripped (confidence 9) [18F8AF01]
Track 8 accurately ripped (confidence 9) [C99D3EC6]
Track 9 accurately ripped (confidence 9) [4649D689]
Track 10 accurately ripped (confidence 10) [D9EB0120]
Track 11 accurately ripped (confidence 9) [5CA43171]
Track 12 accurately ripped (confidence 9) [6FFAEFDD]
Track 13 accurately ripped (confidence 9) [6458982C]
Track 14 accurately ripped (confidence 9) [C0B7B860]
Track 15 accurately ripped (confidence 8) [C8A48EB1]
All tracks accurately ripped
End of status report
REM GENRE Reggae
REM DATE 1996
REM DISCID BF0CE70F
REM COMMENT "ExactAudioCopy v0.99pb4"
PERFORMER "Dr. Alban"
TITLE "Born in Africa (74321 36131 2)"
FILE "Dr. Alban . 1996 . Born in Africa (74321 36131 2).flac" WAVE
TRACK 01 AUDIO
TITLE "Born in Africa [Original radio version]"
PERFORMER "Dr. Alban"
INDEX 00 00:00:00
INDEX 01 00:00:32
TRACK 02 AUDIO
TITLE "Riddle of live"
PERFORMER "Dr. Alban"
INDEX 00 03:30:62
INDEX 01 03:31:55
TRACK 03 AUDIO
TITLE "Alabalaba [Woman's sexy]"
PERFORMER "Dr. Alban"
INDEX 00 06:14:42
INDEX 01 06:15:27
TRACK 04 AUDIO
TITLE "Hallelujah day"
PERFORMER "Dr. Alban"
INDEX 00 09:34:57
INDEX 01 09:36:45
TRACK 05 AUDIO
TITLE "Rock steady [Pupulala]"
PERFORMER "Dr. Alban"
INDEX 00 12:54:00
INDEX 01 12:54:42
TRACK 06 AUDIO
TITLE "I feel the music"
PERFORMER "Dr. Alban"
INDEX 00 17:11:42
INDEX 01 17:12:45
TRACK 07 AUDIO
TITLE "Then i fell in love"
PERFORMER "Dr. Alban"
INDEX 00 20:28:62
INDEX 01 20:29:70
TRACK 08 AUDIO
TITLE "I said it once"
PERFORMER "Dr. Alban"
INDEX 00 23:39:60
INDEX 01 23:41:00
TRACK 09 AUDIO
TITLE "Rich man/Poor man"
PERFORMER "Dr. Alban"
INDEX 00 27:46:47
INDEX 01 27:48:05
TRACK 10 AUDIO
TITLE "This time i'm free"
PERFORMER "Dr. Alban"
INDEX 00 30:58:52
INDEX 01 31:00:15
TRACK 11 AUDIO
TITLE "So long"
PERFORMER "Dr. Alban"
INDEX 01 34:51:05
TRACK 12 AUDIO
TITLE "Feel like making love"
PERFORMER "Dr. Alban"
INDEX 00 38:29:50
INDEX 01 38:31:27
TRACK 13 AUDIO
TITLE "Rock the woman/Shake it [Todd Terry mix]"
PERFORMER "Dr. Alban"
INDEX 00 43:32:32
INDEX 01 43:33:57
TRACK 14 AUDIO
TITLE "This time i'm free [Todd Terry remix-edit]"
PERFORMER "Dr. Alban"
INDEX 00 47:03:30
INDEX 01 47:04:60
TRACK 15 AUDIO
TITLE "Born in Africa [Pierre J's radio remix]"
PERFORMER "Dr. Alban"
INDEX 00 51:21:50
INDEX 01 51:22:52


Год выпуска диска: 1997
Производитель диска: Germany, EAMS/dr. records, EAMS 4003-2
Аудио кодек: FLAC
Тип рипа: image+.cue
Битрейт аудио: lossless
Сканы: прилагаютcя
Продолжительность: 59:00
Tracklist:

1. Intro 3:43
2. Guess Who's Coming To Dinner 3:44
3. Mr. DJ 3:37
4. Soon Come 3:33
5. Feel The Rhythm 4:18
6. Enemies 3:33
7. Long Time Ago 3:27
8. I Believe 3:47
9. Oh Baby 3:13
10. Show Me 3:36
11. Mountains 3:18
12. Humpty Dumpty 2:32
13. Love Affair 2:52
14. Honey Bunny 3:18
15. Ain't No Stopping 3:11
16. Raggamuffin Girl 3:33
17. Oh Baby (Sly & Robbie Mix) 3:12
Exact Audio Copy V0.99 prebeta 5 from 4. May 2009
EAC extraction logfile from 4. August 2010, 15:15
Dr. Alban / I believe (EAMS 4003-2)
Used drive : PIONEER DVD-RW DVR-105 Adapter: 0 ID: 1
Read mode : Secure
Utilize accurate stream : Yes
Defeat audio cache : Yes
Make use of C2 pointers : No
Read offset correction : 48
Overread into Lead-In and Lead-Out : No
Fill up missing offset samples with silence : Yes
Delete leading and trailing silent blocks : No
Null samples used in CRC calculations : Yes
Used interface : Native Win32 interface for Win NT & 2000
Used output format : User Defined Encoder
Selected bitrate : 128 kBit/s
Quality : High
Add ID3 tag : No
Command line compressor : C:\Program Files\Exact Audio Copy 5\Flac\flac.exe
Additional command line options : -8 -V %s
TOC of the extracted CD
Track | Start | Length | Start sector | End sector
---------------------------------------------------------
1 | 0:00.00 | 3:43.20 | 0 | 16744
2 | 3:43.20 | 3:44.32 | 16745 | 33576
3 | 7:27.52 | 3:40.12 | 33577 | 50088
4 | 11:07.64 | 3:35.11 | 50089 | 66224
5 | 14:43.00 | 4:20.17 | 66225 | 85741
6 | 19:03.17 | 3:35.05 | 85742 | 101871
7 | 22:38.22 | 3:29.20 | 101872 | 117566
8 | 26:07.42 | 3:49.58 | 117567 | 134799
9 | 29:57.25 | 3:16.47 | 134800 | 149546
10 | 33:13.72 | 3:38.48 | 149547 | 165944
11 | 36:52.45 | 3:21.12 | 165945 | 181031
12 | 40:13.57 | 2:35.13 | 181032 | 192669
13 | 42:48.70 | 2:55.27 | 192670 | 205821
14 | 45:44.22 | 3:20.03 | 205822 | 220824
15 | 49:04.25 | 3:13.49 | 220825 | 235348
16 | 52:17.74 | 3:35.63 | 235349 | 251536
17 | 55:53.62 | 3:12.53 | 251537 | 265989
Range status and errors
Selected range
Filename C:\Olaf der Weisse\Dr. Alban . 1997 . I believe (EAMS 4003-2)\Dr. Alban . 1997 . I believe (EAMS 4003-2).wav
Peak level 99.0 %
Range quality 100.0 %
Test CRC DE4DF933
Copy CRC DE4DF933
Copy OK
No errors occurred
AccurateRip summary
Track 1 accurately ripped (confidence 6) [56E26F57]
Track 2 accurately ripped (confidence 6) [63003BD1]
Track 3 accurately ripped (confidence 6) [6FCD7893]
Track 4 accurately ripped (confidence 6) [55465B35]
Track 5 accurately ripped (confidence 6) [599FCC13]
Track 6 accurately ripped (confidence 6) [E6051BD0]
Track 7 accurately ripped (confidence 6) [307E0CD6]
Track 8 accurately ripped (confidence 6) [41E66473]
Track 9 accurately ripped (confidence 6) [D97E3AD6]
Track 10 accurately ripped (confidence 6) [3325C114]
Track 11 accurately ripped (confidence 6) [3C253D98]
Track 12 accurately ripped (confidence 6) [9AB65867]
Track 13 accurately ripped (confidence 6) [0027A24C]
Track 14 accurately ripped (confidence 6) [11623DBC]
Track 15 accurately ripped (confidence 6) [2289B043]
Track 16 accurately ripped (confidence 6) [D4A2BBD2]
Track 17 accurately ripped (confidence 6) [EC1886DF]
All tracks accurately ripped
End of status report
REM GENRE Eurodance
REM DATE 1997
REM DISCID 0E0DDA11
REM COMMENT "ExactAudioCopy v0.99pb5"
PERFORMER "Dr. Alban"
TITLE "I believe (EAMS 4003-2)"
FILE "Dr. Alban . 1997 . I believe (EAMS 4003-2).flac" WAVE
TRACK 01 AUDIO
TITLE "Intro"
PERFORMER "Dr. Alban"
INDEX 01 00:00:00
TRACK 02 AUDIO
TITLE "Guess who's coming to dinner"
PERFORMER "Dr. Alban"
INDEX 01 03:43:20
TRACK 03 AUDIO
TITLE "Mr. Dj"
PERFORMER "Dr. Alban"
INDEX 01 07:27:52
TRACK 04 AUDIO
TITLE "Soon come"
PERFORMER "Dr. Alban"
INDEX 00 11:05:72
INDEX 01 11:07:64
TRACK 05 AUDIO
TITLE "Feel the rhythm"
PERFORMER "Dr. Alban"
INDEX 00 14:41:22
INDEX 01 14:43:00
TRACK 06 AUDIO
TITLE "Enemies"
PERFORMER "Dr. Alban"
INDEX 00 19:01:60
INDEX 01 19:03:17
TRACK 07 AUDIO
TITLE "Long time ago"
PERFORMER "Dr. Alban"
INDEX 00 22:37:00
INDEX 01 22:38:22
TRACK 08 AUDIO
TITLE "I believe"
PERFORMER "Dr. Alban"
INDEX 00 26:06:12
INDEX 01 26:07:42
TRACK 09 AUDIO
TITLE "Oh baby"
PERFORMER "Dr. Alban"
INDEX 00 29:55:70
INDEX 01 29:57:25
TRACK 10 AUDIO
TITLE "Show me"
PERFORMER "Dr. Alban"
INDEX 00 33:11:52
INDEX 01 33:13:72
TRACK 11 AUDIO
TITLE "Mountains"
PERFORMER "Dr. Alban"
INDEX 00 36:50:30
INDEX 01 36:52:45
TRACK 12 AUDIO
TITLE "Humpty dumpty"
PERFORMER "Dr. Alban"
INDEX 00 40:11:57
INDEX 01 40:13:57
TRACK 13 AUDIO
TITLE "Love affair"
PERFORMER "Dr. Alban"
INDEX 00 42:46:47
INDEX 01 42:48:70
TRACK 14 AUDIO
TITLE "Honey bunny"
PERFORMER "Dr. Alban"
INDEX 00 45:41:70
INDEX 01 45:44:22
TRACK 15 AUDIO
TITLE "Ain't no stopping"
PERFORMER "Dr. Alban"
INDEX 00 49:03:22
INDEX 01 49:04:25
TRACK 16 AUDIO
TITLE "Raggamuffin girl"
PERFORMER "Dr. Alban"
INDEX 00 52:16:12
INDEX 01 52:17:74
TRACK 17 AUDIO
TITLE "Oh baby (Sly & Robbie mix)"
PERFORMER "Dr. Alban"
INDEX 00 55:52:07
INDEX 01 55:53:62





pb.wtf



Скачать через торрент http://linkme.ufanet.ru/images/437abba408dc01fc73e4f07d73536f50.png Скачать фильм через торрент бесплантно в хорошем качестве Год выпуска: 1997Формат: FLAC (image + .cue)Битрейт аудио: losslessПродолжительность: ... 10 10 8
Info! Золотая раздача, скачанное не засчитывается.
Торрент: Зарегистрирован [2010-09-20 11:35] · скачан: 104 раз
Статус: √ проверено
Размер: 1.86 GB
Как cкачать? Как скачать через торрент | qTorrent

% Раздел Тема Автор DL S | L
Classic Rock & Hard Rock (lossless) [ 2.68 GB ] EVANESCENCE Дискография - 1998-2007 FLAC lossless ser_1985 Скачать
1 | 0
Action FPS (1st Person) [ 8.89 GB ] Star Wars: The Force Unleashed - Ultimate Sith Edition [Lossless Repack RU/EN] от Druid =Чувак= Скачать
1 | 0
Архив (Alternative, Punk, Independent) [ 1.74 GB ] Breaking Benjamin - Дискография - 2001-2009 FLAC lossless King_IS_Back Скачать
1 | 0
Гоночные симуляторы [ 3.18 GB ] Дальнобойщик​и 3: Золотое Издание [Lossless Repack RU] от R.G. Catalyst roman3310i Скачать
1 | 0
Архив (Многоканальная музыка и собственные оцифровки) [ 405 MB ] Black Sabbath -Heaven & hell - 1980 DTS lossless staryirocker Скачать
1 | 0
RTS (стратегии в реальном времени) [ 4.21 GB ] Command & Conquer 4: Tiberian Twilight [Lossless RePackRUEA] Alex_Zeyn Скачать
2 | 0
Рок, Панк, Альтернатива (lossless) [ 6.72 GB ] Пикник - Дискография FLAC lossless Wortex Скачать
2 | 0

28-11-2019 20:33  

Отключить всю рекламу на сайте

19-03-2011 09:58 Скачать торрент  

кто нить встаньте на раздачу плиз...pb.wtf



11-08-2014 06:44 Скачать торрент  

tauras, Вернись пожалуйста на раздачу "Dr. Alban Студийные альбомы (1990-1997)"pb.wtf



02-03-2015 09:19 Скачать торрент  

Дайте жару,хочется качнуть альбомчики!pb.wtf



03-05-2018 11:22 Скачать торрент  

встаньте на раздачу пожалуйстаpb.wtf



    Дорогой пользователь! Огромная просьба, поблагодарите релизера, оцените раздачу и оставьте свои комментарий, если Вы скачали через торрент бесплатно! Внесите свою лепту в развитие PiratBit!
    Комментировать посты могут только пользователи прошедшие не сложную регистрацию
    Показать сообщения:    

    через торрент
    Скачать бесплатно
    скачать торрент
    смотреть онлайн
    Cкачать фильм бесплатно
    скачать торрент в хорошем качестве
    смотреть онлайн бесплатно в хорошем качестве


    Вы не можете начинать темы
    Вы не можете отвечать на сообщения
    Вы не можете редактировать свои сообщения
    Вы не можете удалять свои сообщения
    Вы не можете голосовать в опросах
    Вы не можете прикреплять файлы к сообщениям
    Вы можете скачивать файлы