Ссылка на приватное зеркало нашего сайта всего за 1$. Внимание количество ограничено!!!

2 сезон

iTunes

1 сезон

1

iTunes

iTunes

iTunes

1 сезон

RePack

30

ИГРА 18+

pack

ВАЖНО

!!Акция!!

Alien_RageХит недели

RePack

MK11
pack

Забери бонус

RePack

jed

!!Акция!!

Alien_Rage

RePack

fifa19

RePack

Assassins Creed: Odyssey

RePack

NEED FOR SPEED™ PAYBACK

4 сезон

9 сезон

Бесстыжие 9 сезон

Все сериалы

все сериалы на PB.wtf

RePack

FAR CRY 5
  

Порнояйца / Pornopung (Йохан Каос / Johan Kaos) [2013, Норвегия, Драма, комедия, HDRip] VO (Павел Морозов) pb.wtf

Порнояйца через торрент pb.wtf

Размер: 1.46 GB | Добавлен: 3 года 8 мес. назад | Торрент скачан:53 раза
Скачать  

23-01-2017 15:04 Порнояйца Скачать торрент  

Порнояйца / Pornopung

Год выпуска: 2013
Страна: Норвегия / Chezville, Feil Film, Tappeluft Pictures
Жанр: Драма, комедия
Продолжительность: 01:40:27
Перевод: Любительский (одноголосый закадровый) Павел Морозов
Cубтитры: нет

Режиссер: Йохан Каос / Johan Kaos

В ролях: Уле Кристоффер Эртвог), Херберт Нордрум, Андерс Рюднинг, Гитте Витт, Кристина Кнабен Хеннестад, Марте Сэтерен, Андерс По Кантен...

Описание: Романтик Кристиан приезжает в Осло на учебу. Его соседями становятся Карл и Лео, два Дон Жуана, цель которых - переспать с большим количеством женщин, чем Казанова. Приятелям удается втянуть Кристиана в свой мир, но всё идет не так хорошо, как они надеялись.


Сэмпл: http://sendfile.su/1301691


Качество видео: HDRip
Формат видео: AVI
Видео кодек: XviD
Аудио кодек: АС3
Видео: 720x304 (2.37:1), 24.000 fps, XviD build 73 ~1872 kbps avg, 0.36 bit/pixel
Аудио: 48 kHz, AC3 Dolby Digital, 2/0 (L,R) ch, ~192 kbps
Общее
Полное имя : F:\Pornojajca.2013.HDRip.1400.[Один 777].avi
Формат : AVI
Формат/Информация : Audio Video Interleave
Размер файла : 1,46 Гбайт
Продолжительность : 1 ч. 40 м.
Общий поток : 2074 Кбит/сек
Программа кодирования : VirtualDubMod 1.5.10.3 | www.virtualdub-fr.org || (build 2550/release)
Библиотека кодирования : VirtualDubMod build 2550/release

Видео
Идентификатор : 0
Формат : MPEG-4 Visual
Профиль формата : Advanced Simple@L5
Параметр BVOP формата : 1
Параметр QPel формата : Нет
Параметр GMC формата : Без точки перехода
Параметр матрицы формата : Default (H.263)
Идентификатор кодека : XVID
Идентификатор кодека/Подсказка : XviD
Продолжительность : 1 ч. 40 м.
Битрейт : 1872 Кбит/сек
Ширина : 720 пикселей
Высота : 304 пикселя
Соотношение сторон : 2,35:1
Частота кадров : 24,000 кадра/сек
Цветовое пространство : YUV
Субдискретизация насыщенности : 4:2:0
Битовая глубина : 8 бит
Тип развёртки : Прогрессивная
Метод сжатия : С потерями
Бит/(Пиксели*Кадры) : 0.356
Размер потока : 1,31 Гбайт (90%)
Библиотека кодирования : XviD 73

Аудио
Идентификатор : 1
Формат : AC-3
Формат/Информация : Audio Coding 3
Расширение режима : CM (complete main)
Параметр Endianness формата : Big
Идентификатор кодека : 2000
Продолжительность : 1 ч. 40 м.
Вид битрейта : Постоянный
Битрейт : 192 Кбит/сек
Каналы : 2 канала
Расположение каналов : Front: L R
Частота : 48,0 КГц
Частота кадров : 31,250 кадров/сек (1536 spf)
Метод сжатия : С потерями
Размер потока : 138 Мбайт (9%)
Выравнивание : Разделение по промежуткам
Продолжительность промежутка : 42 мс. (1,00 видеокадр)
Время предзагрузки промежутка : 500 мс.
pb.wtf



Скачать Порнояйца через торрент http://i1.imageban.ru/out/2017/01/23/7696e43ac2b8f6c861d64283dd928dae.jpg Скачать фильм Порнояйца через торрент бесплантно в хорошем качестве Описание: Романтик Кристиан приезжает в Осло на учебу. Его соседями становятся Карл и Лео, два Дон Жуана, цель которых - переспать с ... 7 10 6
Info! Золотая раздача, скачанное не засчитывается.
Торрент: Зарегистрирован [2017-01-23 15:04] · скачан: 53 раз
Статус: √ проверено
Размер: 1.46 GB
Как cкачать? Как скачать Порнояйца через торрент | qTorrent

% Раздел Тема Автор DL S | L
Фильмы 2013 (Звук TS, Cam, VO, DVO) [ 752 MB ] Порнояйца / Pornopung [2013 Норвегия HDRip] VO Один 777 Скачать
1 | 0

28-11-2019 20:33  

Отключить всю рекламу на сайте

    Дорогой пользователь! Огромная просьба, поблагодарите релизера, оцените раздачу и оставьте свои комментарий, если Вы скачали Порнояйца через торрент бесплатно! Внесите свою лепту в развитие PiratBit!
    Комментировать посты могут только пользователи прошедшие не сложную регистрацию
    Показать сообщения:    

    Порнояйца через торрент
    Скачать бесплатно Порнояйца
    Порнояйца скачать торрент
    Порнояйца смотреть онлайн
    Cкачать фильм Порнояйца бесплатно
    Порнояйца скачать торрент в хорошем качестве
    Порнояйца смотреть онлайн бесплатно в хорошем качестве


    Вы не можете начинать темы
    Вы не можете отвечать на сообщения
    Вы не можете редактировать свои сообщения
    Вы не можете удалять свои сообщения
    Вы не можете голосовать в опросах
    Вы не можете прикреплять файлы к сообщениям
    Вы можете скачивать файлы