Ссылка на приватное зеркало всего за 1$. Внимание количество ограничено!!!

OK

1+1

iTunes

мы

OK

1

WEB-DLRip

Джокер

Пифагор

Ведьмак / The Witcher сериал

Лицензия

ПШазам

ОК

Оно 2

iTunes

30
pack

Вам бонус

ВАЖНО

!!Акция!!

Alien_RageХит недели

RePack

Resident Evil 21

ИГРА 18+

pack

RePack

jed

!!Акция!!

Alien_Rage

RePack

fifa19

RePack

Assassins Creed: Odyssey

RePack

NEED FOR SPEED™ PAYBACK

4 сезон

9 сезон

Бесстыжие 9 сезон

Все сериалы

все сериалы на PB.wtf

RePack

FAR CRY 5
  

Некронос / Necronos (Марк Роншток / Marc Rohnstock) [2010, Германия, Ужасы, DVDRip] VO (zakrewski) + Sub (Rus) pb.wtf

Некронос через торрент pb.wtf

Размер: 1.46 GB | Добавлен: 2 года 11 мес. назад | Торрент скачан:27 раз
Скачать  

23-01-2017 16:44 Некронос Скачать торрент  

Некронос / Necronos
«Вы не можете убить то, что уже мертво»

Год выпуска: 2010
Страна: Германия / Infernal Films
Жанр: Ужасы
Продолжительность: 02:07:09
Перевод: Любительский (одноголосый закадровый) zakrewski
Cубтитры: русские на надписи (hardsub (неотключаемые))

Режиссер: Марк Роншток / Marc Rohnstock

В ролях: Томас Зендер, Мануш, Тимо Фукс, Марио Циммершитт, Александр Андрешка, Таня Кариус, Саския Ноймюллер, Майк Вайсхаупт, Денисса Шмидт, Тони Реккерт...

Описание: Некронос - самый могущественный из приспешников самого дьявола, придет на Землю, чтобы создать непобедимую армию нежити. Для этого сатана посылает двух помощников, чтобы найти избранницу — ведьму-девственницу…


Сэмпл: http://sendfile.su/1301720


Качество видео: DVDRip
Формат видео: AVI
Видео кодек: XviD
Аудио кодек: АС3
Видео: 720x400 (1.80:1), 25 fps, XviD build 73 ~1442 kbps avg, 0.20 bit/pixel
Аудио: 48 kHz, AC3 Dolby Digital, 2/0 (L,R) ch, ~192 kbps
Общее
Полное имя : F:\Nekronos.2010.DVDRip.1400.[Один 777].avi
Формат : AVI
Формат/Информация : Audio Video Interleave
Размер файла : 1,46 Гбайт
Продолжительность : 2 ч. 7 м.
Общий поток : 1644 Кбит/сек
Программа кодирования : VirtualDubMod 1.5.10.3 | www.virtualdub-fr.org || (build 2550/release)
Библиотека кодирования : VirtualDubMod build 2550/release

Видео
Идентификатор : 0
Формат : MPEG-4 Visual
Профиль формата : Advanced Simple@L5
Параметр BVOP формата : 1
Параметр QPel формата : Нет
Параметр GMC формата : Без точки перехода
Параметр матрицы формата : Default (H.263)
Идентификатор кодека : XVID
Идентификатор кодека/Подсказка : XviD
Продолжительность : 2 ч. 7 м.
Битрейт : 1442 Кбит/сек
Ширина : 720 пикселей
Высота : 400 пикселей
Соотношение сторон : 16:9
Частота кадров : 25,000 кадров/сек
Цветовое пространство : YUV
Субдискретизация насыщенности : 4:2:0
Битовая глубина : 8 бит
Тип развёртки : Прогрессивная
Метод сжатия : С потерями
Бит/(Пиксели*Кадры) : 0.200
Размер потока : 1,28 Гбайт (88%)
Библиотека кодирования : XviD 73

Аудио
Идентификатор : 1
Формат : AC-3
Формат/Информация : Audio Coding 3
Расширение режима : CM (complete main)
Параметр Endianness формата : Big
Идентификатор кодека : 2000
Продолжительность : 2 ч. 7 м.
Вид битрейта : Постоянный
Битрейт : 192 Кбит/сек
Каналы : 2 канала
Расположение каналов : Front: L R
Частота : 48,0 КГц
Частота кадров : 31,250 кадров/сек (1536 spf)
Метод сжатия : С потерями
Размер потока : 175 Мбайт (12%)
Выравнивание : Разделение по промежуткам
Продолжительность промежутка : 40 мс. (1,00 видеокадр)
Время предзагрузки промежутка : 500 мс.
pb.wtf



Скачать Некронос через торрент http://i3.imageban.ru/out/2017/01/23/16cd0404f29f0b7dcf3ed5940bc7b8bb.jpg Скачать фильм Некронос через торрент бесплантно в хорошем качестве Описание: Некронос - самый могущественный из приспешников самого дьявола, придет на Землю, чтобы создать непобедимую армию нежити. Для ... 7 10 6
Info! Золотая раздача, скачанное не засчитывается.
Торрент: Зарегистрирован [2017-01-23 16:44] · скачан: 27 раз
Статус: √ проверено
Размер: 1.46 GB
Как cкачать? Как скачать Некронос через торрент | qTorrent

% Раздел Тема Автор DL S | L
Фильмы 2010 [ 766 MB ] Некронос / Necronos [2010 Германия DVDRip] VO + Sub Один 777 Скачать
1 | 0
Фильмы 2010 [ 1.4 GB ] Некронос / Necronos [2010 эротика DVDRip] / Любительский [zakrewski] + Оригинал Sherif Скачать
1 | 1

28-11-2019 20:33  

Отключить всю рекламу на сайте

    Дорогой пользователь! Огромная просьба, поблагодарите релизера, оцените раздачу и оставьте свои комментарий, если Вы скачали Некронос через торрент бесплатно! Внесите свою лепту в развитие PiratBit!
    Комментировать посты могут только пользователи прошедшие не сложную регистрацию
    Показать сообщения:    

    Некронос через торрент
    Скачать бесплатно Некронос
    Некронос скачать торрент
    Некронос смотреть онлайн
    Cкачать фильм Некронос бесплатно
    Некронос скачать торрент в хорошем качестве
    Некронос смотреть онлайн бесплатно в хорошем качестве


    Вы не можете начинать темы
    Вы не можете отвечать на сообщения
    Вы не можете редактировать свои сообщения
    Вы не можете удалять свои сообщения
    Вы не можете голосовать в опросах
    Вы не можете прикреплять файлы к сообщениям
    Вы можете скачивать файлы