Достать ножи: Стеклянная луковица

MVO

Добыча

Дубляж

Уэнсдэй

1 сезон

Тор

Дубляж

13 клиническая

1 сезон

Жестокая ночь

MVO

Одни из нас

1 сезон

Deluxe

pack

Рекомендуем

30

Пиратка

ВАЖНО

ВАЖНО

Ghostwire

Пиратка

jed

RePack

nioh2

RePack

RDR2

RePack

NEED FOR SPEED™ PAYBACK

RePack

скачать торрент

Кинопоиск HD

Острые козырьки 6 сезон

6 сезон

FAR CRY 6

RePack

скачать торрент

Лицензия

скачать торрент

MVO

1

1 сезон

скачать торрент

1 сезон

скачать торрент

Лицензия

  

Дон Верден / Don Verdean (Джаред Хесс) [2015, драма, комедия, приключения, BDRip-AVC] Дубляж - [Лицензия / iTunes] R.G.Resident

Дон Верден через торрент pb.wtf

Размер: 2.57 GB | Добавлен: 6 лет назад | Торрент скачан:142 раза
Смотреть онлайн | Скачать | Поддержите нас   

24-01-2017 00:20 Дон Верден Скачать торрент  

Дон Верден / Don Verdean
««Fraud works in mysterious ways»»

Год выпуска: 2015
Страна: США
Жанр: драма, комедия, приключения
Продолжительность: 01:36:04
Перевод: Дубляж - [Лицензия / iTunes]
Субтитры: русские (Full), английские (Full), английские (SDH)
Режиссер: Джаред Хесс
В ролях:

Сэм Рокуэлл (Don Verdean), Эми Райан (Carol Jensen), Уилл Форте (Pastor Fontaine), Дэнни МакБрайд (Tony Lazarus), Джемейн Клемент (Boaz), Стив Парк (Poon-Yen), Лесли Бибб (Joylinda Lazarus), Скай Элобар (Dr. Stanley), П.Дж. Будуск (Gary), Янив Мойал (Israeli Police Officer), Джаред Шипли (Lab Tech), Логан Роган (Tourist)
Описание:
Библейский археолог Дон Вердиан нанят пастором местной церкви, для поиска реликвий, способствующих обретению веры, в Святой Земле. Но после бесплодных экспедиций он вынужден подойти к вопросу творчески в этой комедии веры и мошенничества.
Мировая премьера: 28 января 2015

MPAA: PG-13 - Детям до 13 лет просмотр не желателен
Качество: BDRip-AVC Rip by
Формат: MKV
Видео: AVC, 1024x576 (16:9), 2996 kbps, 23,976 fps, 0,212 bpp
Аудио №1: русский / AC3 / 5.1 / 48 kHz / 384 kbps /
Аудио №2: английский / AC3 / 5.1 / 48 kHz / 448 kbps /
General
Unique ID : 229166616985204011893016233285818936959 (0xAC67E28EBDFE217F842CF970CF7A6E7F)
Complete name : D:\download\Don.Verdean.2015.BDRip-AVC by schultz R.G.Resident.mkv
Format : Matroska
Format version : Version 4 / Version 2
File size : 2.57 GiB
Duration : 1 h 36 min
Overall bit rate : 3 826 kb/s
Encoded date : UTC 2017-01-23 23:42:56
Writing application : mkvmerge v8.9.0 ('Father Daughter') 64bit
Writing library : libebml v1.3.3 + libmatroska v1.4.4

Video
ID : 1
Format : AVC
Format/Info : Advanced Video Codec
Format profile : [email protected]
Format settings, CABAC : Yes
Format settings, ReFrames : 12 frames
Codec ID : V_MPEG4/ISO/AVC
Duration : 1 h 36 min
Bit rate : 2 996 kb/s
Width : 1 024 pixels
Height : 576 pixels
Display aspect ratio : 16:9
Frame rate mode : Constant
Frame rate : 23.976 (23976/1000) FPS
Color space : YUV
Chroma subsampling : 4:2:0
Bit depth : 8 bits
Scan type : Progressive
Bits/(Pixel*Frame) : 0.212
Stream size : 2.01 GiB (78%)
Writing library : x264 core 146 r2538 121396c
Encoding settings : cabac=1 / ref=12 / deblock=1:-3:-3 / analyse=0x3:0x113 / me=umh / subme=11 / psy=1 / psy_rd=1.00:0.00 / mixed_ref=1 / me_range=48 / chroma_me=1 / trellis=2 / 8x8dct=1 / cqm=0 / deadzone=21,11 / fast_pskip=0 / chroma_qp_offset=-2 / threads=12 / lookahead_threads=3 / sliced_threads=0 / nr=0 / decimate=0 / interlaced=0 / bluray_compat=0 / constrained_intra=0 / bframes=11 / b_pyramid=2 / b_adapt=2 / b_bias=0 / direct=3 / weightb=1 / open_gop=0 / weightp=2 / keyint=240 / keyint_min=23 / scenecut=40 / intra_refresh=0 / rc_lookahead=40 / rc=2pass / mbtree=1 / bitrate=2996 / ratetol=1.0 / qcomp=0.60 / qpmin=0 / qpmax=69 / qpstep=4 / cplxblur=20.0 / qblur=0.5 / vbv_maxrate=50000 / vbv_bufsize=62500 / nal_hrd=none / filler=0 / ip_ratio=1.40 / aq=1:1.00
Language : English
Default : Yes
Forced : No

Audio #1
ID : 2
Format : AC-3
Format/Info : Audio Coding 3
Mode extension : CM (complete main)
Format settings, Endianness : Big
Codec ID : A_AC3
Duration : 1 h 35 min
Bit rate mode : Constant
Bit rate : 384 kb/s
Channel(s) : 6 channels
Channel positions : Front: L C R, Side: L R, LFE
Sampling rate : 48.0 kHz
Frame rate : 31.250 FPS (1536 spf)
Compression mode : Lossy
Stream size : 264 MiB (10%)
Language : Russian
Default : Yes
Forced : No

Audio #2
ID : 3
Format : AC-3
Format/Info : Audio Coding 3
Mode extension : CM (complete main)
Format settings, Endianness : Big
Codec ID : A_AC3
Duration : 1 h 36 min
Bit rate mode : Constant
Bit rate : 448 kb/s
Channel(s) : 6 channels
Channel positions : Front: L C R, Side: L R, LFE
Sampling rate : 48.0 kHz
Frame rate : 31.250 FPS (1536 spf)
Compression mode : Lossy
Stream size : 308 MiB (12%)
Language : English
Default : No
Forced : No

Text #1
ID : 4
Format : UTF-8
Codec ID : S_TEXT/UTF8
Codec ID/Info : UTF-8 Plain Text
Duration : 1 h 33 min
Bit rate : 114 b/s
Count of elements : 1185
Stream size : 77.9 KiB (0%)
Title : Full
Language : Russian
Default : No
Forced : No

Text #2
ID : 5
Format : UTF-8
Codec ID : S_TEXT/UTF8
Codec ID/Info : UTF-8 Plain Text
Duration : 1 h 35 min
Bit rate : 83 b/s
Count of elements : 1591
Stream size : 58.1 KiB (0%)
Title : Full
Language : English
Default : No
Forced : No

Text #3
ID : 6
Format : UTF-8
Codec ID : S_TEXT/UTF8
Codec ID/Info : UTF-8 Plain Text
Duration : 1 h 35 min
Bit rate : 90 b/s
Count of elements : 1732
Stream size : 63.3 KiB (0%)
Title : SDH
Language : English
Default : No
Forced : No

Menu
00:00:00.000 : en:Chapter 1
00:07:31.868 : en:Chapter 2
00:14:50.222 : en:Chapter 3
00:21:57.733 : en:Chapter 4
00:29:46.284 : en:Chapter 5
00:34:47.293 : en:Chapter 6
00:40:30.386 : en:Chapter 7
00:48:41.710 : en:Chapter 8
01:00:22.869 : en:Chapter 9
01:11:24.697 : en:Chapter 10
01:21:44.649 : en:Chapter 11
01:32:26.374 : en:Chapter 12




Скачать Дон Верден через торрент http://i77.fastpic.ru/big/2016/0417/a7/808a646271c761f7c7d87df3d366b3a7.png Скачать, смотреть онлайн Дон Верден бесплантно в хорошем качестве Описание: Библейский археолог Дон Вердиан нанят пастором местной церкви, для поиска реликвий, способствующих обретению веры, в Святой ... 7 10 6
Info! Золотая раздача, скачанное не засчитывается.
Торрент: Зарегистрирован [2017-01-24 00:20] · скачан: 142 раз
Статус: √ проверено
Размер: 2.57 GB
Как cкачать? Как скачать Дон Верден через торрент | UTorrent

28-11-2019 20:33  


Отключить вcю реклaмy на сайте, в т.ч. и в плеере онлайн просмотра!

24-01-2017 05:50 Дон Верден Скачать торрент  

кто смотрел отпишитесь..



    Дорогой пользователь! Огромная просьба, поблагодарите релизера, оцените раздачу и оставьте свои комментарий, если Вы скачали Дон Верден через торрент бесплатно!!
    Комментировать посты могут только пользователи прошедшие не сложную регистрацию
    Показать сообщения:    


    Дон Верден через торрент
    Скачать бесплатно Дон Верден
    Дон Верден скачать торрент
    Дон Верден смотреть онлайн
    Cкачать фильм Дон Верден бесплатно
    Дон Верден скачать торрент в хорошем качестве
    Дон Верден смотреть онлайн бесплатно в хорошем качестве
    Вы не можете начинать темы
    Вы не можете отвечать на сообщения
    Вы не можете редактировать свои сообщения
    Вы не можете удалять свои сообщения
    Вы не можете голосовать в опросах
    Вы не можете прикреплять файлы к сообщениям
    Вы можете скачивать файлы
    Дон Верден / Don Verdean [2015, драма, комедия, приключения, BDRip-AVC] Дубляж - [Лицензия / iTunes] R.G.Resident смотреть онлайн, скачать торрент picoco.icu