Доктор Стрэндж

Лицензия

Добыча

Дубляж

Дом дракона

1 сезон

Тор

Дубляж

В эфире

Дубляж

Там, где раки поют

MVO

Властелин колец

1 сезон

GLOBAL

pack

Рекомендуем

30

Пиратка

ВАЖНО

ВАЖНО

Ghostwire

Пиратка

jed

RePack

nioh2

RePack

RDR2

RePack

NEED FOR SPEED™ PAYBACK

RePack

скачать торрент

Кинопоиск HD

Острые козырьки 6 сезон

6 сезон

FAR CRY 6

RePack

скачать торрент

Лицензия

скачать торрент

MVO

1

1 сезон

скачать торрент

1 сезон

скачать торрент

Лицензия

  

Дон Верден / Don Verdean (Джаред Хесс) [2015, комедия, BDRemux 1080p] Дубляж / iTunes

Дон Верден через торрент pb.wtf

Размер: 16.94 GB | Добавлен: 5 лет 10 мес. назад | Торрент скачан:12 раз
Смотреть онлайн | Скачать   

24-01-2017 06:22 Дон Верден Скачать торрент  

Название: Дон Верден
Оригинальное название: Don Verdean
Год выхода: 2015
Жанр: Комедия
Страна: США
Студия: Davis Entertainment, RatPac-Dune Entertainment, Warner Bros
Продолжительность: 01:36:04
Перевод: Дублированный | iTunes
Субтитры: Русские, английские

Режиссер: Джаред Хесс

В ролях: Сэм Рокуэлл, Эми Райан, Уилл Форте, Дэнни МакБрайд, Джемейн Клемент, Стив Парк, Лесли Бибб, П.Дж. Будуск, Янив Мойал

Описание:

Библейский археолог Дон Вердиан нанят пастором местной церкви, для поиска реликвий, способствующих обретению веры, в Святой Земле. Но после бесплодных экспедиций он вынужден подойти к вопросу творчески в этой комедии веры и мошенничества.

rating

Качество: BDRemux 1080p
Формат: MKV
Видео: MPEG-4 AVC, 1920x1080, 23.0 Mbit/s, 23.976 fps
Аудио #01: 48 kHz, AC3, 5.1, 384 Kbps | Дублированный | iTunes |
Аудио #02: 48 kHz, DTS-HD MA, 5.1, 1920 kbps | Оригинал |
General

Unique ID : 212614322092837679081644193654069438417 (0x9FF407696CFC3246AA7BC813D362A7D1)

Complete name : F:VideoDon.Verdean.2015.BDREMUX.1080p.ExKinoRay.mkv

Format : Matroska

Format version : Version 4 / Version 2

File size : 16.9 GiB

Duration : 1 h 36 min

Overall bit rate mode : Variable

Overall bit rate : 25.2 Mb/s

Encoded date : UTC 2017-01-23 09:42:35

Writing application : mkvmerge v8.3.0 ('Over the Horizon') 64bit

Writing library : libebml v1.3.1 + libmatroska v1.4.2

Video

ID : 1

Format : AVC

Format/Info : Advanced Video Codec

Format profile : [email protected]

Format settings, CABAC : Yes

Format settings, ReFrames : 4 frames

Codec ID : V_MPEG4/ISO/AVC

Duration : 1 h 36 min

Bit rate mode : Variable

Bit rate : 23.0 Mb/s

Maximum bit rate : 35.0 Mb/s

Width : 1 920 pixels

Height : 1 080 pixels

Display aspect ratio : 16:9

Frame rate mode : Constant

Frame rate : 23.976 (24000/1001) FPS

Standard : NTSC

Color space : YUV

Chroma subsampling : 4:2:0

Bit depth : 8 bits

Scan type : Progressive

Bits/(Pixel*Frame) : 0.462

Stream size : 15.4 GiB (91%)

Title : Don.Verdean.2015 ***селезень***

Language : English

Default : Yes

Forced : No

Color range : Limited

Color primaries : BT.709

Transfer characteristics : BT.709

Matrix coefficients : BT.709

Audio #1

ID : 2

Format : AC-3

Format/Info : Audio Coding 3

Mode extension : CM (complete main)

Format settings, Endianness : Big

Codec ID : A_AC3

Duration : 1 h 35 min

Bit rate mode : Constant

Bit rate : 384 kb/s

Channel(s) : 6 channels

Channel positions : Front: L C R, Side: L R, LFE

Sampling rate : 48.0 kHz

Frame rate : 31.250 FPS (1536 spf)

Bit depth : 16 bits

Compression mode : Lossy

Stream size : 264 MiB (2%)

Title : iTunes

Language : Russian

Default : Yes

Forced : No

Audio #2

ID : 3

Format : DTS

Format/Info : Digital Theater Systems

Format profile : MA / Core

Mode : 16

Format settings, Endianness : Big

Codec ID : A_DTS

Duration : 1 h 36 min

Bit rate mode : Variable / Constant

Bit rate : 1 920 kb/s / 1 509 kb/s

Channel(s) : 6 channels

Channel positions : Front: L C R, Side: L R, LFE

Sampling rate : 48.0 kHz

Frame rate : 93.750 FPS (512 spf)

Bit depth : 16 bits

Compression mode : Lossless / Lossy

Stream size : 1.26 GiB (7%)

Title : Original

Language : English

Default : No

Forced : No

Text #1

ID : 4

Format : UTF-8

Codec ID : S_TEXT/UTF8

Codec ID/Info : UTF-8 Plain Text

Duration : 1 h 33 min

Bit rate : 114 b/s

Count of elements : 1185

Stream size : 77.9 KiB (0%)

Title : Full

Language : Russian

Default : No

Forced : No

Text #2

ID : 5

Format : UTF-8

Codec ID : S_TEXT/UTF8

Codec ID/Info : UTF-8 Plain Text

Duration : 1 h 35 min

Bit rate : 83 b/s

Count of elements : 1591

Stream size : 58.1 KiB (0%)

Title : Full

Language : English

Default : No

Forced : No

Text #3

ID : 6

Format : UTF-8

Codec ID : S_TEXT/UTF8

Codec ID/Info : UTF-8 Plain Text

Duration : 1 h 35 min

Bit rate : 90 b/s

Count of elements : 1732

Stream size : 63.3 KiB (0%)

Title : SDH

Language : English

Default : No

Forced : No

Menu

00:00:00.000 : en:Chapter 1

00:07:31.868 : en:Chapter 2

00:14:50.222 : en:Chapter 3

00:21:57.733 : en:Chapter 4

00:29:46.284 : en:Chapter 5

00:34:47.293 : en:Chapter 6

00:40:30.386 : en:Chapter 7

00:48:41.710 : en:Chapter 8

01:00:22.869 : en:Chapter 9

01:11:24.697 : en:Chapter 10

01:21:44.649 : en:Chapter 11

01:32:26.374 : en:Chapter 12
скриншот  скриншот  скриншот  
Релиз от: Автор релиза:



Скачать Дон Верден через торрент http://s019.radikal.ru/i631/1701/74/cb0cddc34215.jpg Скачать, смотреть онлайн Дон Верден бесплантно в хорошем качестве Описание:Библейский археолог Дон Вердиан нанят пастором местной церкви, для поиска реликвий, способствующих обретению веры, в Святой Земле. ... 9 10 4
Торрент: Зарегистрирован [2017-01-24 06:22] · скачан: 12 раз
Статус: √ проверено
Размер: 16.94 GB
Как cкачать? Как скачать Дон Верден через торрент | UTorrent

% Раздел Тема Автор DL S | L
Фильмы 2015 [DVDrip, WEB-DLRip, HDrip] [ 1.42 GB ] Дон Верден / Don Verdean | Лицензия | BDRip Twi7ter Скачать
1 | 0
R.G. Resident & PiratVoice - Фильмы, Видео [ 2.57 GB ] Дон Верден / Don Verdean | Лицензия | BDRip-AVC Хорват Скачать
1 | 0

28-11-2019 20:33  


Отключить вcю реклaмy на сайте, в т.ч. и в плеере онлайн просмотра!

    Дорогой пользователь! Огромная просьба, поблагодарите релизера, оцените раздачу и оставьте свои комментарий, если Вы скачали Дон Верден через торрент бесплатно!!
    Комментировать посты могут только пользователи прошедшие не сложную регистрацию
    Показать сообщения:    


    Дон Верден через торрент
    Скачать бесплатно Дон Верден
    Дон Верден скачать торрент
    Дон Верден смотреть онлайн
    Cкачать фильм Дон Верден бесплатно
    Дон Верден скачать торрент в хорошем качестве
    Дон Верден смотреть онлайн бесплатно в хорошем качестве
    Вы не можете начинать темы
    Вы не можете отвечать на сообщения
    Вы не можете редактировать свои сообщения
    Вы не можете удалять свои сообщения
    Вы не можете голосовать в опросах
    Вы не можете прикреплять файлы к сообщениям
    Вы можете скачивать файлы
    Дон Верден / Don Verdean [2015, комедия, BDRemux 1080p] Дубляж / iTunes смотреть онлайн, скачать торрент picoco.icu