1 сезон

3 сезон

iTunes

1

iTunes

MVO

iTunes

13

1 сезон

RePack

30

Deluxe

pack

Лицензия

ВАЖНО

ИГРА 18+

pack

RePack

MK11

RePack

jed

RePack

fifa19

RePack

RDR2

RePack

NEED FOR SPEED™ PAYBACK

4 сезон

9 сезон

Бесстыжие 9 сезон

Все сериалы

все сериалы на PB.wtf

RePack

FAR CRY 5

Anonymous, добрый день, мы катастрофически не успеваем собрать деньги на оплату серверов, помогите нам пожалуйста 5,10,15р., для нас важна любая помощь . В качестве благодарности мы отключим Вам всю рекламу на сайте (укажите свой ник в строку Ваше имя)!

×
  
Magnet ссылка

В постели с Викторией / Victoria (Жюстин Трие) [2016, драма, мелодрама, комедия, BDRip-AVC] Профессиональный многоголосый [Лицензия / iTunes] R.G.Resident pb.wtf

В постели с Викторией через торрент pb.wtf

Размер: 2.54 GB | Добавлен: 4 года 6 мес. назад | Торрент скачан:281 раз
Скачать  

24-01-2017 07:42 В постели с Викторией Скачать торрент  

В постели с Викторией / Victoria
Год выпуска: 2016
Страна: Франция
Жанр: драма, мелодрама, комедия
Продолжительность: 01:36:10
Перевод: Профессиональный многоголосый [Лицензия / iTunes]
Субтитры: French (full)
Режиссер: Жюстин Трие
В ролях:

Виржини Эфира (Victoria Spick), Венсан Лакост (Samuel Mallet), Мельвиль Пупо (Vincent Kossarski), Лоран Пуатрено (David), Лорэ Кэлами (L'avocate de Victoria), Alice Daquet (Eve), Жюли Мулье (La juge), Elsa Wolliaston (La voyante), Софи Фийер (Sophie), Liv Harari (Liv), Jeane Arra-Bellanger (Jeanne), Hector Obalk (Le Président du Tribunal de Paris)
Описание:
Виктория пытается начать новую жизнь - взять себя в руки, разобраться с любовниками, больше спать и лучше питаться. Только вот бывший, обратившийся к ней за помощью, не помогает навести порядок. А другой возлюбленный, возомнивший себя популярным писателем, посвящает всю сеть в подробности ее интимной жизни.
Мировая премьера: 12 мая 2016

Качество: BDRip-AVC Rip by
Формат: MKV
Видео: AVC, 1024x428 (2.40:1), 2948 kbps, 23,976 fps, 0,281 bpp
Аудио №1: русский / AC3 / 5.1 / 48 kHz / 384 kbps /
Аудио №2: французский / AC3 / 5.1 / 48 kHz / 448 kbps /
General
Unique ID : 211732763824534651282608625789767045228 (0x9F4A3F3BC4E41C8D910A2DAF3B3CD06C)
Complete name : D:\download\VICTORIA.2016.BDRip-AVC by schultz R.G.Resident.mkv
Format : Matroska
Format version : Version 4 / Version 2
File size : 2.54 GiB
Duration : 1 h 36 min
Overall bit rate : 3 780 kb/s
Encoded date : UTC 2017-01-24 07:05:11
Writing application : mkvmerge v8.9.0 ('Father Daughter') 64bit
Writing library : libebml v1.3.3 + libmatroska v1.4.4

Video
ID : 1
Format : AVC
Format/Info : Advanced Video Codec
Format profile : High@L4.1
Format settings, CABAC : Yes
Format settings, ReFrames : 12 frames
Codec ID : V_MPEG4/ISO/AVC
Duration : 1 h 36 min
Bit rate : 2 948 kb/s
Width : 1 024 pixels
Height : 428 pixels
Display aspect ratio : 2.40:1
Frame rate mode : Constant
Frame rate : 23.976 (23976/1000) FPS
Color space : YUV
Chroma subsampling : 4:2:0
Bit depth : 8 bits
Scan type : Progressive
Bits/(Pixel*Frame) : 0.281
Stream size : 1.98 GiB (78%)
Writing library : x264 core 146 r2538 121396c
Encoding settings : cabac=1 / ref=12 / deblock=1:-3:-3 / analyse=0x3:0x113 / me=umh / subme=11 / psy=1 / psy_rd=1.00:0.00 / mixed_ref=1 / me_range=48 / chroma_me=1 / trellis=2 / 8x8dct=1 / cqm=0 / deadzone=21,11 / fast_pskip=0 / chroma_qp_offset=-2 / threads=12 / lookahead_threads=3 / sliced_threads=0 / nr=0 / decimate=0 / interlaced=0 / bluray_compat=0 / constrained_intra=0 / bframes=11 / b_pyramid=2 / b_adapt=2 / b_bias=0 / direct=3 / weightb=1 / open_gop=0 / weightp=2 / keyint=240 / keyint_min=23 / scenecut=40 / intra_refresh=0 / rc_lookahead=40 / rc=2pass / mbtree=1 / bitrate=2948 / ratetol=1.0 / qcomp=0.60 / qpmin=0 / qpmax=69 / qpstep=4 / cplxblur=20.0 / qblur=0.5 / vbv_maxrate=50000 / vbv_bufsize=62500 / nal_hrd=none / filler=0 / ip_ratio=1.40 / aq=1:1.00
Language : English
Default : Yes
Forced : No

Audio #1
ID : 2
Format : AC-3
Format/Info : Audio Coding 3
Mode extension : CM (complete main)
Format settings, Endianness : Big
Codec ID : A_AC3
Duration : 1 h 36 min
Bit rate mode : Constant
Bit rate : 384 kb/s
Channel(s) : 6 channels
Channel positions : Front: L C R, Side: L R, LFE
Sampling rate : 48.0 kHz
Frame rate : 31.250 FPS (1536 spf)
Compression mode : Lossy
Stream size : 264 MiB (10%)
Language : Russian
Default : Yes
Forced : No

Audio #2
ID : 3
Format : AC-3
Format/Info : Audio Coding 3
Mode extension : CM (complete main)
Format settings, Endianness : Big
Codec ID : A_AC3
Duration : 1 h 36 min
Bit rate mode : Constant
Bit rate : 448 kb/s
Channel(s) : 6 channels
Channel positions : Front: L C R, Side: L R, LFE
Sampling rate : 48.0 kHz
Frame rate : 31.250 FPS (1536 spf)
Compression mode : Lossy
Stream size : 308 MiB (12%)
Language : French
Default : No
Forced : No

Text
ID : 4
Format : UTF-8
Codec ID : S_TEXT/UTF8
Codec ID/Info : UTF-8 Plain Text
Duration : 1 h 31 min
Bit rate : 77 b/s
Count of elements : 1476
Stream size : 51.7 KiB (0%)
Title : full
Language : French
Default : No
Forced : No

Menu
00:00:00.000 : en:Chapter 1
00:09:27.399 : en:Chapter 2
00:22:26.470 : en:Chapter 3
00:34:23.393 : en:Chapter 4
00:45:34.231 : en:Chapter 5
00:57:00.666 : en:Chapter 6
01:08:45.121 : en:Chapter 7
01:21:00.313 : en:Chapter 8
01:32:34.006 : en:Chapter 9

pb.wtf



Скачать В постели с Викторией через торрент http://i77.fastpic.ru/big/2016/0417/a7/808a646271c761f7c7d87df3d366b3a7.png Скачать фильм В постели с Викторией через торрент бесплантно в хорошем качестве Описание: Виктория пытается начать новую жизнь - взять себя в руки, разобраться с любовниками, больше спать и лучше питаться. Только вот ... 9.1 10 10
Info! Золотая раздача, скачанное не засчитывается.
Торрент: Зарегистрирован [2017-01-24 07:42] · скачан: 281 раз
Статус: √ проверено
Размер: 2.54 GB
Как cкачать? Как скачать В постели с Викторией через торрент | UTorrent

28-11-2019 20:33  

Отключить всю рекламу на сайте

01-02-2019 17:45 В постели с Викторией Скачать торрент  

так все сбито в одну кучу, что так сразу и не разберешься, что да как... но зато сиське были.pb.wtf



    Дорогой пользователь! Огромная просьба, поблагодарите релизера, оцените раздачу и оставьте свои комментарий, если Вы скачали В постели с Викторией через торрент бесплатно! Внесите свою лепту в развитие PiratBit!
    Комментировать посты могут только пользователи прошедшие не сложную регистрацию
    Показать сообщения:    

    В постели с Викторией через торрент
    Скачать бесплатно В постели с Викторией
    В постели с Викторией скачать торрент
    В постели с Викторией смотреть онлайн
    Cкачать фильм В постели с Викторией бесплатно
    В постели с Викторией скачать торрент в хорошем качестве
    В постели с Викторией смотреть онлайн бесплатно в хорошем качестве


    Вы не можете начинать темы
    Вы не можете отвечать на сообщения
    Вы не можете редактировать свои сообщения
    Вы не можете удалять свои сообщения
    Вы не можете голосовать в опросах
    Вы не можете прикреплять файлы к сообщениям
    Вы можете скачивать файлы