Ссылка на приватное зеркало нашего сайта всего за 1$. Внимание количество ограничено!!!

2 сезон

iTunes

1 сезон

1

iTunes

iTunes

iTunes

1 сезон

RePack

30

ИГРА 18+

pack

ВАЖНО

!!Акция!!

Alien_RageХит недели

RePack

MK11
pack

Забери бонус

RePack

jed

!!Акция!!

Alien_Rage

RePack

fifa19

RePack

Assassins Creed: Odyssey

RePack

NEED FOR SPEED™ PAYBACK

4 сезон

9 сезон

Бесстыжие 9 сезон

Все сериалы

все сериалы на PB.wtf

RePack

FAR CRY 5
  

Легион / Legion (Скотт Чарльз Стюарт ) [2010, ужасы, фэнтези, боевик, BDRip 720p от potroks] DUB, AVO (x2) pb.wtf

Легион через торрент pb.wtf

Размер: 6.73 GB | Добавлен: 3 года 9 мес. назад | Торрент скачан:319 раз
Скачать  

24-01-2017 11:43 Легион Скачать торрент  

Легион / Legion

Год выпуска: 2010
Страна: США / Bold Films
Жанр: ужасы, фэнтези, боевик
Продолжительность: 01:40:08
Перевод: Дубляж [Blu-ray CEE], aвторский (одноголосый)
Субтитры: русские (форс. (дополнены)), русские (Blu-ray CEE), русские (Goblin), английские
Навигация по главам: есть
Режиссер: Скотт Чарльз Стюарт
В ролях:

Пол Беттани (Michael), Лукас Блэк (Jeep Hanson), Тайриз Гибсон (Kyle Williams), Эдрианн Палики (Charlie), Чарльз С. Даттон (Percy Walker), Джон Тенни (Howard Anderson), Кевин Дюран (Gabriel), Уилла Холланд (Audrey Anderson), Кейт Уолш (Sandra Anderson), Деннис Куэйд (Bob Hanson), Жанетт Миллер (Gladys Foster), Камерон Харлоу (Minivan Boy)
Описание: Бог окончательно разуверился в человечестве и послал ангелов смерти стереть свое творение с лица земли. На защиту людей встал лишь архангел Михаил, объединив под своим командованием горстку изгоев, которые в закусочной посреди пустыни терпеливо ожидают рождения Мессии.

Качество: BDRip 720p
Формат: MKV
Видео: AVC, 1280x534 (2.40:1), 7069 kbps, 23,976 fps, 0,431 bpp
Аудио №1: AC3 / 5.1 / 48 kHz / 640 kbps / 16 bit | DUB - Blu-ray CEE
Аудио №2: AC3 / 5.1 / 48 kHz / 640 kbps / 16 bit | AVO - Ю.Немахов
Аудио №3: AC3 / 5.1 / 48 kHz / 640 kbps / 16 bit | AVO - М.Чадов
Аудио №4: AC3 / 5.1 / 48 kHz / 640 kbps / 16 bit | ENG
General
Unique ID : 205957827925763084777896860449177649405 (0x9AF208E932ABC71981824247A458C0FD)
Complete name : D:\Legion.2010.3xRus.Eng.BDRip.720p.-HELLYWOOD.mkv
Format : Matroska
Format version : Version 4 / Version 2
File size : 6.73 GiB
Duration : 1 h 40 min
Overall bit rate : 9 620 kb/s
Movie name : Legion (2010)
Encoded date : UTC 2017-01-24 11:09:09
Writing application : mkvmerge v5.9.0 ('On The Loose') built on Dec 15 2012 16:39:58
Writing library : libebml v1.3.0 + libmatroska v1.4.0

Video
ID : 1
Format : AVC
Format/Info : Advanced Video Codec
Format profile : High@L4.1
Format settings, CABAC : Yes
Format settings, ReFrames : 9 frames
Codec ID : V_MPEG4/ISO/AVC
Duration : 1 h 40 min
Bit rate : 7 069 kb/s
Width : 1 280 pixels
Height : 534 pixels
Display aspect ratio : 2.40:1
Frame rate mode : Constant
Frame rate : 23.976 FPS
Color space : YUV
Chroma subsampling : 4:2:0
Bit depth : 8 bits
Scan type : Progressive
Bits/(Pixel*Frame) : 0.431
Stream size : 4.80 GiB (71%)
Title : potroks
Writing library : x264 core 146 r2538 121396c
Encoding settings : cabac=1 / ref=9 / deblock=1:-3:-3 / analyse=0x3:0x113 / me=umh / subme=11 / psy=1 / psy_rd=1.00:0.05 / mixed_ref=1 / me_range=48 / chroma_me=1 / trellis=2 / 8x8dct=1 / cqm=0 / deadzone=21,11 / fast_pskip=0 / chroma_qp_offset=-3 / threads=9 / lookahead_threads=2 / sliced_threads=0 / nr=0 / decimate=0 / interlaced=0 / bluray_compat=0 / constrained_intra=0 / bframes=10 / b_pyramid=2 / b_adapt=2 / b_bias=0 / direct=3 / weightb=1 / open_gop=0 / weightp=2 / keyint=240 / keyint_min=23 / scenecut=40 / intra_refresh=0 / rc_lookahead=60 / rc=2pass / mbtree=0 / bitrate=7069 / ratetol=1.0 / qcomp=0.70 / qpmin=0 / qpmax=69 / qpstep=4 / cplxblur=20.0 / qblur=0.5 / vbv_maxrate=14000 / vbv_bufsize=14000 / nal_hrd=none / filler=0 / ip_ratio=1.40 / pb_ratio=1.30 / aq=1:0.80
Language : English
Default : Yes
Forced : No

Audio #1
ID : 2
Format : AC-3
Format/Info : Audio Coding 3
Mode extension : CM (complete main)
Format settings, Endianness : Big
Codec ID : A_AC3
Duration : 1 h 40 min
Bit rate mode : Constant
Bit rate : 640 kb/s
Channel(s) : 6 channels
Channel positions : Front: L C R, Side: L R, LFE
Sampling rate : 48.0 kHz
Frame rate : 31.250 FPS (1536 spf)
Compression mode : Lossy
Stream size : 458 MiB (7%)
Title : Dub | DD 5.1 @ 640 kbps - Blu-ray CEE
Language : Russian
Default : Yes
Forced : No

Audio #2
ID : 3
Format : AC-3
Format/Info : Audio Coding 3
Mode extension : CM (complete main)
Format settings, Endianness : Big
Codec ID : A_AC3
Duration : 1 h 40 min
Bit rate mode : Constant
Bit rate : 640 kb/s
Channel(s) : 6 channels
Channel positions : Front: L C R, Side: L R, LFE
Sampling rate : 48.0 kHz
Frame rate : 31.250 FPS (1536 spf)
Compression mode : Lossy
Stream size : 458 MiB (7%)
Title : AVO | DD 5.1 @ 640 kbps - Yu.Nemahov
Language : Russian
Default : No
Forced : No

Audio #3
ID : 4
Format : AC-3
Format/Info : Audio Coding 3
Mode extension : CM (complete main)
Format settings, Endianness : Big
Codec ID : A_AC3
Duration : 1 h 40 min
Bit rate mode : Constant
Bit rate : 640 kb/s
Channel(s) : 6 channels
Channel positions : Front: L C R, Side: L R, LFE
Sampling rate : 48.0 kHz
Frame rate : 31.250 FPS (1536 spf)
Compression mode : Lossy
Stream size : 458 MiB (7%)
Title : AVO | DD 5.1 @ 640 kbps - M.Chadov
Language : Russian
Default : No
Forced : No

Audio #4
ID : 5
Format : AC-3
Format/Info : Audio Coding 3
Mode extension : CM (complete main)
Format settings, Endianness : Big
Codec ID : A_AC3
Duration : 1 h 40 min
Bit rate mode : Constant
Bit rate : 640 kb/s
Channel(s) : 6 channels
Channel positions : Front: L C R, Side: L R, LFE
Sampling rate : 48.0 kHz
Frame rate : 31.250 FPS (1536 spf)
Compression mode : Lossy
Stream size : 458 MiB (7%)
Title : Original | DD 5.1 @ 640 kbps
Language : English
Default : No
Forced : No

Text #1
ID : 6
Format : UTF-8
Codec ID : S_TEXT/UTF8
Codec ID/Info : UTF-8 Plain Text
Title : Forced
Language : Russian
Default : Yes
Forced : No

Text #2
ID : 7
Format : UTF-8
Codec ID : S_TEXT/UTF8
Codec ID/Info : UTF-8 Plain Text
Title : Blu-ray CEE
Language : Russian
Default : No
Forced : No

Text #3
ID : 8
Format : UTF-8
Codec ID : S_TEXT/UTF8
Codec ID/Info : UTF-8 Plain Text
Title : Goblin
Language : Russian
Default : No
Forced : No

Text #4
ID : 9
Format : UTF-8
Codec ID : S_TEXT/UTF8
Codec ID/Info : UTF-8 Plain Text
Title : Full
Language : English
Default : No
Forced : No

Menu
00:00:00.000 : en:(01)00:00:00:000
00:00:16.433 : en:(02)00:00:16:433
00:01:13.782 : en:(03)00:01:13:782
00:08:13.701 : en:(04)00:08:13:701
00:11:57.049 : en:(05)00:11:57:049
00:13:00.863 : en:(06)00:13:00:863
00:14:25.823 : en:(07)00:14:25:823
00:15:12.202 : en:(08)00:15:12:202
00:15:44.151 : en:(09)00:15:44:151
00:16:26.068 : en:(10)00:16:26:068
00:17:45.064 : en:(11)00:17:45:064
00:19:18.615 : en:(12)00:19:18:615
00:22:01.028 : en:(13)00:22:01:028
00:24:53.992 : en:(14)00:24:53:992
00:25:53.718 : en:(15)00:25:53:718
00:27:46.831 : en:(16)00:27:46:831
00:29:06.911 : en:(17)00:29:06:911
00:30:22.028 : en:(18)00:30:22:028
00:33:07.819 : en:(19)00:33:07:819
00:34:29.317 : en:(20)00:34:29:317
00:35:04.227 : en:(21)00:35:04:227
00:36:10.668 : en:(22)00:36:10:668
00:36:50.791 : en:(23)00:36:50:791
00:37:37.630 : en:(24)00:37:37:630
00:38:18.462 : en:(25)00:38:18:462
00:39:24.362 : en:(26)00:39:24:362
00:39:46.884 : en:(27)00:39:46:884
00:41:58.182 : en:(28)00:41:58:182
00:42:30.965 : en:(29)00:42:30:965
00:43:38.073 : en:(30)00:43:38:073
00:45:51.081 : en:(31)00:45:51:081
00:47:09.701 : en:(32)00:47:09:701
00:48:58.518 : en:(33)00:48:58:518
00:50:14.094 : en:(34)00:50:14:094
00:53:38.965 : en:(35)00:53:38:965
00:54:12.832 : en:(36)00:54:12:832
00:56:05.362 : en:(37)00:56:05:362
00:57:39.664 : en:(38)00:57:39:664
00:59:06.918 : en:(39)00:59:06:918
01:01:53.751 : en:(40)01:01:53:751
01:04:48.175 : en:(41)01:04:48:175
01:06:24.188 : en:(42)01:06:24:188
01:08:19.845 : en:(43)01:08:19:845
01:09:03.472 : en:(44)01:09:03:472
01:09:23.159 : en:(45)01:09:23:159
01:09:43.971 : en:(46)01:09:43:971
01:11:47.386 : en:(47)01:11:47:386
01:12:14.747 : en:(48)01:12:14:747
01:13:32.699 : en:(49)01:13:32:699
01:15:07.961 : en:(50)01:15:07:961
01:16:43.265 : en:(51)01:16:43:265
01:18:40.924 : en:(52)01:18:40:924
01:20:13.850 : en:(53)01:20:13:850
01:22:08.214 : en:(54)01:22:08:214
01:23:13.238 : en:(55)01:23:13:238
01:25:04.974 : en:(56)01:25:04:974
01:27:24.614 : en:(57)01:27:24:614
01:28:47.363 : en:(58)01:28:47:363
01:30:35.596 : en:(59)01:30:35:596
01:31:13.092 : en:(60)01:31:13:092
01:32:02.433 : en:(61)01:32:02:433
pb.wtf



Скачать Легион через торрент http://i90.fastpic.ru/big/2017/0124/1a/b9c112d18304da9bef89c39a5ebd991a.png Скачать фильм Легион через торрент бесплантно в хорошем качестве Описание: Бог окончательно разуверился в человечестве и послал ангелов смерти стереть свое творение с лица земли. На защиту людей встал ... 9.1 10 14
Info! Золотая раздача, скачанное не засчитывается.
Торрент: Зарегистрирован [2017-01-24 11:43] · скачан: 319 раз
Статус: √ проверено
Размер: 6.73 GB
Как cкачать? Как скачать Легион через торрент | qTorrent

% Раздел Тема Автор DL S | L
Фильмы (HD 720p, 1080p) (48-60 fps) [ 9.49 GB ] Легион / Legion [2010 BDRip 720p 60fps DUB] mimok Скачать
1 | 0
Фильмы [HD 720p, 1080p] (Хороший звук DUB, MVO) [ 6.42 GB ] Легионер / Legionnaire [1998 BDRip 720p от KORSAR] 2x MVO + DVO + 3x AVO filbi1976 Скачать
1 | 0
Зарубежные сериалы [ 31.46 GB ] Легион / Legion / Сезон: 1 / Серии: 1-8 из 8 [2017 BDRip 1080p] MVO [TVShows] bober100 Скачать
1 | 0
Зарубежные сериалы [ 10.1 GB ] Легион / Legion / Сезон: 3 / Серии: 1-8 из 8 [2019 WEB-DL 720p] [MVO] killermax2013 Скачать
1 | 0
Зарубежные сериалы [ 25.74 GB ] Легион / Legion / Сезон: 3 / Серии: 1-8 из 8 [2019 WEB-DL 1080p] MVO [LostFilm] bober100 Скачать
1 | 0
Зарубежные сериалы [ 25.76 GB ] Легион / Legion / Сезон: 3 / Серии: 1-8 из 8 [2019 WEB-DL 1080p] MVO [TVShows] bober100 Скачать
1 | 0
Зарубежные сериалы [ 5.2 GB ] Легион / Legion / Сезон: 3 / Серии: 1-8 из 8 [2019 . WEB-DLRip] MVO [LostFilm] bober100 Скачать
2 | 0

28-11-2019 20:33  

Отключить всю рекламу на сайте

24-01-2017 13:32 Легион Скачать торрент  

Смотрел давно, но фильм отличный. Забираю на пересмотр. Автору - респект. pb.wtf



25-01-2017 05:24 Легион Скачать торрент  

Ходил на него в кино тогда еще, весь исплевался, можно просто посмотреть трейлер и всё, а фильм ниже среднего.pb.wtf



25-01-2017 20:25 Легион Скачать торрент  

фильм выше среднего )). со смыслом. просто некоторым и трейлера много ))pb.wtf



26-01-2017 14:19 Легион Скачать торрент  

Главное-в закусочной..гамбургеры,картошка-фри,кола...между перекусом терпеливо ждали Мессию pb.wtf



26-01-2017 16:16 Легион Скачать торрент  

да ладно, о великие критики! Фильм отличнейший! Не всем дано смысл понять! Автору огромное спасибо!pb.wtf



27-01-2017 16:13 Легион Скачать торрент  

можно посмотреть, согласен.pb.wtf



29-01-2017 10:40 Легион Скачать торрент  

anabioz2009 писал(а):

Не всем дано смысл понять!

Вот уж да, в обычном голивудском B-фильме великие знатоки находят смысл pb.wtf



    Дорогой пользователь! Огромная просьба, поблагодарите релизера, оцените раздачу и оставьте свои комментарий, если Вы скачали Легион через торрент бесплатно! Внесите свою лепту в развитие PiratBit!
    Комментировать посты могут только пользователи прошедшие не сложную регистрацию
    Показать сообщения:    

    Легион через торрент
    Скачать бесплатно Легион
    Легион скачать торрент
    Легион смотреть онлайн
    Cкачать фильм Легион бесплатно
    Легион скачать торрент в хорошем качестве
    Легион смотреть онлайн бесплатно в хорошем качестве


    Вы не можете начинать темы
    Вы не можете отвечать на сообщения
    Вы не можете редактировать свои сообщения
    Вы не можете удалять свои сообщения
    Вы не можете голосовать в опросах
    Вы не можете прикреплять файлы к сообщениям
    Вы можете скачивать файлы