Ссылка на приватное зеркало нашего сайта всего за 1$. Внимание количество ограничено!!!

2 сезон

iTunes

1 сезон

1

iTunes

iTunes

iTunes

1 сезон

RePack

30

ИГРА 18+

pack

ВАЖНО

!!Акция!!

Alien_RageХит недели

RePack

MK11
pack

Забери бонус

RePack

jed

!!Акция!!

Alien_Rage

RePack

fifa19

RePack

Assassins Creed: Odyssey

RePack

NEED FOR SPEED™ PAYBACK

4 сезон

9 сезон

Бесстыжие 9 сезон

Все сериалы

все сериалы на PB.wtf

RePack

FAR CRY 5
  

Тролли / Trolls (Уолт Дорн, Майк Митчелл) [2016 г., мультфильм, мюзикл, фэнтези, комедия, приключения, семейный, HDRip, Дубляж iTunes] pb.wtf

Тролли через торрент pb.wtf

Размер: 1.37 GB | Добавлен: 3 года 8 мес. назад | Торрент скачан:250 раз
Скачать  

25-01-2017 07:49 Тролли Скачать торрент  

Тролли / Trolls
Год выпуска: 2016
Страна: США
Жанр: мультфильм, мюзикл, фэнтези, комедия, приключения, семейный
Продолжительность: 01:32:26
Перевод: Дубляж iTunes
Субтитры: нет

Режиссер: Уолт Дорн, Майк Митчелл

Бюджет: $125 000 000
Премьера в мире: 8 октября 2016

rating

В ролях: Анна Кендрик, Джастин Тимберлэйк, Зои Дешанель, Кристофер Минц-Плассе, Кристин Барански, Расселл Брэнд, Гвен Стефани

Описание: Отправляясь в увлекательное приключение, которое заведёт её далеко от привычного ей мира, Розочка объединяет усилия с самым мрачным троллем на свете по имени Цветан для достижения успеха в своей смелой миссии спасти её друзей из тисков зловещих бергенов и их лидера, короля Хрящ Старший. Невероятные приключения Розочки проверят её силу, покажут её истинную суть и бросят вызов её способности ударяться в пение в любой момент...

Качество: HDRip
Формат: AVI
Видео кодек: XviD
Аудио кодек: AC3
Видео: 720x304 (2.35:1), 23.976 fps, XviD ~1 724 kbps avg
Аудио: 48.0 kHz, AC3 Dolby Digital, 3/2 (L,C,R,l,r) + LFE ch, ~384 kbps



General
Complete name : H:\релизы.торрентфайл\TRoLLyki.2O16.D.HDRip.14OOMB.avi
Format : AVI
Format/Info : Audio Video Interleave
File size : 1.37 GiB
Duration : 1h 32mn
Overall bit rate : 2 117 Kbps
Writing application : VirtualDubMod 1.5.10.2 (build 2540/release)
Writing library : VirtualDubMod build 2540/release

Video
ID : 0
Format : MPEG-4 Visual
Format profile : Advanced Simple@L5
Format settings, BVOP : 2
Format settings, QPel : No
Format settings, GMC : No warppoints
Format settings, Matrix : Default (MPEG)
Codec ID : XVID
Codec ID/Hint : XviD
Duration : 1h 32mn
Bit rate : 1 724 Kbps
Width : 720 pixels
Height : 304 pixels
Display aspect ratio : 2.35:1
Frame rate : 23.976 fps
Color space : YUV
Chroma subsampling : 4:2:0
Bit depth : 8 bits
Scan type : Progressive
Compression mode : Lossy
Bits/(Pixel*Frame) : 0.328
Stream size : 1.11 GiB (81%)
Writing library : XviD 1.2.1 (UTC 2008-12-04)

Audio
ID : 1
Format : AC-3
Format/Info : Audio Coding 3
Mode extension : CM (complete main)
Format settings, Endianness : Big
Codec ID : 2000
Duration : 1h 32mn
Bit rate mode : Constant
Bit rate : 384 Kbps
Channel(s) : 6 channels
Channel positions : Front: L C R, Side: L R, LFE
Sampling rate : 48.0 KHz
Bit depth : 16 bits
Compression mode : Lossy
Stream size : 254 MiB (18%)
Alignment : Split accross interleaves
Interleave, duration : 42 ms (1.00 video frame)
Interleave, preload duration : 500 ms

pb.wtf



Скачать Тролли через торрент http://i5.imageban.ru/out/2016/12/22/ba84020390060436f8e94a6a536b8d37.jpg Скачать фильм Тролли через торрент бесплантно в хорошем качестве Описание: Отправляясь в увлекательное , которое заведёт её далеко от привычного ей мира, Розочка объединяет усилия с самым ... 7.8 10 4
Торрент: Зарегистрирован [2017-01-25 07:49] · скачан: 250 раз
Статус: √ проверено
Размер: 1.37 GB
Как cкачать? Как скачать Тролли через торрент | qTorrent

% Раздел Тема Автор DL S | L
Иностранные мультфильмы [ 1.46 GB ] Тролли. Мировой тур / Trolls World Tour [2020 мультфильм мюзикл BDRip] - [] Twi7ter Скачать
115 | 2
Иностранные мультфильмы [ 744 MB ] Тролли. Мировой тур / Trolls World Tour [2020 мультфильм мюзикл HDRip] DUB [] bober100 Скачать
1 | 0
3D Мультфильмы [ 8.29 GB ] Тролли. Мировой тур 3Д / Trolls World Tour 3D [2020 мультфильм мюзикл BDRip 1080p ] DUB [] bober100 Скачать
2 | 0
Иностранные мультфильмы [ 1.46 GB ] Тролли. Мировой тур / Trolls World Tour [2020 мультфильм мюзикл BDRip-AVC] DUB [] bober100 Скачать
5 | 0
Иностранные мультфильмы [ 1.46 GB ] Тролли. Мировой тур / Trolls World Tour [2020 мультфильм мюзикл BDRip] DUB [] bober100 Скачать
2 | 0
Зарубежные Мультфильмы (BDRip 1080p, 720p, Blu-ray, BD-Remux) [ 34.14 GB ] Тролли. Мировой тур / Trolls World Tour [2020 мультфильм мюзикл Blu-Ray 1080p ] DUB [] bober100 Скачать
1 | 0
Зарубежные Мультфильмы (BDRip 1080p, 720p, Blu-ray, BD-Remux) [ 30.77 GB ] Тролли. Мировой тур / Trolls World Tour [2020 мультфильм мюзикл BD Remux 1080p ] DUB [] bober100 Скачать
1 | 0

28-11-2019 20:33  

Отключить всю рекламу на сайте

    Дорогой пользователь! Огромная просьба, поблагодарите релизера, оцените раздачу и оставьте свои комментарий, если Вы скачали Тролли через торрент бесплатно! Внесите свою лепту в развитие PiratBit!
    Комментировать посты могут только пользователи прошедшие не сложную регистрацию
    Показать сообщения:    

    Тролли через торрент
    Скачать бесплатно Тролли
    Тролли скачать торрент
    Тролли смотреть онлайн
    Cкачать фильм Тролли бесплатно
    Тролли скачать торрент в хорошем качестве
    Тролли смотреть онлайн бесплатно в хорошем качестве


    Вы не можете начинать темы
    Вы не можете отвечать на сообщения
    Вы не можете редактировать свои сообщения
    Вы не можете удалять свои сообщения
    Вы не можете голосовать в опросах
    Вы не можете прикреплять файлы к сообщениям
    Вы можете скачивать файлы