2 сезон

iTunes

1 сезон

1

iTunes

iTunes

iTunes

1 сезон

RePack

30

ИГРА 18+

pack

ВАЖНО

!!Акция!!

Alien_RageХит недели

RePack

MK11
pack

Забери бонус

RePack

jed

!!Акция!!

Alien_Rage

RePack

fifa19

RePack

Assassins Creed: Odyssey

RePack

NEED FOR SPEED™ PAYBACK

4 сезон

9 сезон

Бесстыжие 9 сезон

Все сериалы

все сериалы на PB.wtf

RePack

FAR CRY 5
  

Адский Хельсинки / Rööperi (Алекси Мякеля) [2009, драма, криминал, биография, BDRip 1080p by msltel] AVO, VO pb.wtf

Адский Хельсинки через торрент pb.wtf

Размер: 12.85 GB | Добавлен: 3 года 9 мес. назад | Торрент скачан:29 раз
Скачать  

25-01-2017 08:42 Адский Хельсинки Скачать торрент  

Название: Адский Хельсинки
Оригинальное название: Rööperi
Год выпуска: 2009
Страна: Финляндия
Жанр: драма, криминал, биография
Продолжительность: 02:16:30
Перевод: авторский, любительский одноголосый

Режиссёр: Алекси Мякеля

В ролях: Самули Эдельманн, Петер Францен, Кари Хиеталахти, Пихла Виитала, Кристо Салминен, Яспер Пяякконен, Хиски Гренстранд, Томми Рантамяки, Юха Вейонен, Пекка Валкеэйярви

Описание: Счастье, тюрьма или могила? Происходящее на экране основано на романе-интервью Харийа Нюканена, описывающем прежние дни Реопери — одного из самых печально известных районов Хельсинки. В фильме представлен период 1966-1979. Помимо путешествия главных героев, Томпы и Крису, зрителей ожидает история шайки плохих парней, попытавшихся вырваться из бедности с помощью нелегальной торговли спиртным. Они надеются завязать с преступным промыслом, как только накопят достаточно денег. Но когда начинают зарабатывать все больше и больше, их аппетиты резко возрастают. Несмотря на то, что Реопери и его обитатели представлены в наихудшем свете, зритель всё-таки полюбит героев фильма. И будет плакать, и смеяться вместе с ними. С теми, кому суждено попасть за решетку или умереть молодым...



Качество: BDRip 1080p
Формат: MKV
Видео: MPEG-4 AVC, 11.7 Mбит/с, 1920x800, 24 кадра/с
Аудио 1: русский, AC3, 448 kbps, 6 ch, 48 kHz [авторский, Юрий Немахов]
Аудио 2: русский, AC3, 640 kbps, 6 ch, 48 kHz [любительский одноголосый, Kenum (Владислав Данилов). Перевод Kofeynik]
Аудио 3: финский, AC3, 640 kbps, 6 ch, 48 kHz [оригинал]
Субтитры 1: русские
Субтитры 2: английские
Имеются неименованные главы/чаптеры.
Общее
Уникальный идентификатор : 215615067899641301132205617316082603888 (0xA235F39A4817F21AA07A0ACCB775D770)
Полное имя : D:\Video\Адский Хельсинки.2009.BDRip.1080p by msltel.mkv
Формат : Matroska
Версия формата : Version 4 / Version 2
Размер файла : 12,8 Гбайт
Продолжительность : 2 ч. 16 м.
Общий поток : 13,5 Мбит/сек
Название фильма : Rip by msltel
Дата кодирования : UTC 2017-01-25 06:51:58
Программа кодирования : mkvmerge v8.2.0 ('World of Adventure') 64bit
Библиотека кодирования : libebml v1.3.1 + libmatroska v1.4.2

Видео
Идентификатор : 1
Формат : AVC
Формат/Информация : Advanced Video Codec
Профиль формата : High@L4.1
Параметр CABAC формата : Да
Параметр ReFrames формата : 4 кадра
Идентификатор кодека : V_MPEG4/ISO/AVC
Продолжительность : 2 ч. 16 м.
Битрейт : 11,7 Мбит/сек
Ширина : 1920 пикселей
Высота : 800 пикселей
Соотношение сторон : 2,40:1
Режим частоты кадров : Постоянный
Частота кадров : 24,000 кадра/сек
Цветовое пространство : YUV
Субдискретизация насыщенности : 4:2:0
Битовая глубина : 8 бит
Тип развёртки : Прогрессивная
Бит/(Пиксели*Кадры) : 0.319
Размер потока : 11,2 Гбайт (87%)
Библиотека кодирования : x264 core 146 r2538 121396c
Настройки программы : cabac=1 / ref=4 / deblock=1:-3:-2 / analyse=0x3:0x113 / me=umh / subme=11 / psy=1 / psy_rd=1.00:0.15 / mixed_ref=1 / me_range=32 / chroma_me=1 / trellis=2 / 8x8dct=1 / cqm=0 / deadzone=21,11 / fast_pskip=0 / chroma_qp_offset=-3 / threads=6 / lookahead_threads=1 / sliced_threads=0 / nr=0 / decimate=1 / interlaced=0 / bluray_compat=0 / constrained_intra=0 / bframes=8 / b_pyramid=2 / b_adapt=2 / b_bias=0 / direct=1 / weightb=1 / open_gop=0 / weightp=2 / keyint=230 / keyint_min=23 / scenecut=40 / intra_refresh=0 / rc_lookahead=40 / rc=crf / mbtree=0 / crf=17.5 / qcomp=0.60 / qpmin=0 / qpmax=69 / qpstep=4 / vbv_maxrate=62500 / vbv_bufsize=78125 / crf_max=0.0 / nal_hrd=none / filler=0 / ip_ratio=1.40 / pb_ratio=1.30 / aq=1:1.00
Язык : Finnish
Default : Да
Forced : Нет

Аудио #1
Идентификатор : 2
Формат : AC-3
Формат/Информация : Audio Coding 3
Расширение режима : CM (complete main)
Параметр Endianness формата : Big
Идентификатор кодека : A_AC3
Продолжительность : 2 ч. 16 м.
Вид битрейта : Постоянный
Битрейт : 448 Кбит/сек
Каналы : 6 каналов
Расположение каналов : Front: L C R, Side: L R, LFE
Частота : 48,0 КГц
Частота кадров : 31,250 кадров/сек (1536 spf)
Метод сжатия : С потерями
Размер потока : 437 Мбайт (3%)
Заголовок : AVO (Юрий Немахов)
Язык : Russian
Default : Да
Forced : Нет

Аудио #2
Идентификатор : 3
Формат : AC-3
Формат/Информация : Audio Coding 3
Расширение режима : CM (complete main)
Параметр Endianness формата : Big
Идентификатор кодека : A_AC3
Продолжительность : 2 ч. 16 м.
Вид битрейта : Постоянный
Битрейт : 640 Кбит/сек
Каналы : 6 каналов
Расположение каналов : Front: L C R, Side: L R, LFE
Частота : 48,0 КГц
Частота кадров : 31,250 кадров/сек (1536 spf)
Метод сжатия : С потерями
Размер потока : 625 Мбайт (5%)
Заголовок : любительский одноголосый, Kenum (Владислав Данилов). Перевод Kofeynik
Язык : Russian
Default : Нет
Forced : Нет

Аудио #3
Идентификатор : 4
Формат : AC-3
Формат/Информация : Audio Coding 3
Расширение режима : CM (complete main)
Параметр Endianness формата : Big
Идентификатор кодека : A_AC3
Продолжительность : 2 ч. 16 м.
Вид битрейта : Постоянный
Битрейт : 640 Кбит/сек
Каналы : 6 каналов
Расположение каналов : Front: L C R, Side: L R, LFE
Частота : 48,0 КГц
Частота кадров : 31,250 кадров/сек (1536 spf)
Метод сжатия : С потерями
Размер потока : 625 Мбайт (5%)
Заголовок : original
Язык : Finnish
Default : Нет
Forced : Нет

Текст #1
Идентификатор : 5
Формат : UTF-8
Идентификатор кодека : S_TEXT/UTF8
Идентификатор кодека/Информация : UTF-8 Plain Text
Продолжительность : 2 ч. 8 м.
Битрейт : 63 бит/сек
Count of elements : 1046
Размер потока : 60,0 Кбайт (0%)
Заголовок : русские
Язык : Russian
Default : Нет
Forced : Нет

Текст #2
Идентификатор : 6
Формат : UTF-8
Идентификатор кодека : S_TEXT/UTF8
Идентификатор кодека/Информация : UTF-8 Plain Text
Продолжительность : 2 ч. 8 м.
Битрейт : 40 бит/сек
Count of elements : 1046
Размер потока : 37,9 Кбайт (0%)
Заголовок : английские
Язык : English
Default : Нет
Forced : Нет

Меню
00:00:00.000 : :Chapter 01
00:11:25.916 : :Chapter 02
00:26:51.875 : :Chapter 03
00:33:50.375 : :Chapter 04
00:48:01.750 : :Chapter 05
00:58:27.791 : :Chapter 06
01:10:55.250 : :Chapter 07
01:19:38.208 : :Chapter 08
01:32:52.000 : :Chapter 09
01:44:25.416 : :Chapter 10
01:53:32.708 : :Chapter 11
02:10:43.666 : :Chapter 12
pb.wtf



Скачать Адский Хельсинки через торрент http://s13.radikal.ru/i186/1701/10/e21f1a04a84d.jpg Скачать фильм Адский Хельсинки через торрент бесплантно в хорошем качестве Описание: Счастье, тюрьма или могила? Происходящее на экране основано на романе-интервью Харийа Нюканена, описывающем прежние дни Реопери — ... 3.5 10 4
Info! Золотая раздача, скачанное не засчитывается.
Торрент: Зарегистрирован [2017-01-25 08:42] · скачан: 29 раз
Статус: √ проверено
Размер: 12.85 GB
Как cкачать? Как скачать Адский Хельсинки через торрент | qTorrent

% Раздел Тема Автор DL S | L
Фильмы [HD 720p, 1080p] (Хороший звук DUB, MVO) [ 5.71 GB ] Адский Хельсинки / Rööperi [2009 биография BDRip 720p by msltel] AVO VO msltel Скачать
1 | 0
Фильмы с авторской озвучкой [ 1.46 GB ] Адский Хельсинки / Rööperi / Hellsinki [2009 биография BDRip] [AVO] killermax2013 Скачать
1 | 0

28-11-2019 20:33  

Отключить всю рекламу на сайте

    Дорогой пользователь! Огромная просьба, поблагодарите релизера, оцените раздачу и оставьте свои комментарий, если Вы скачали Адский Хельсинки через торрент бесплатно! Внесите свою лепту в развитие PiratBit!
    Комментировать посты могут только пользователи прошедшие не сложную регистрацию
    Показать сообщения:    

    Адский Хельсинки через торрент
    Скачать бесплатно Адский Хельсинки
    Адский Хельсинки скачать торрент
    Адский Хельсинки смотреть онлайн
    Cкачать фильм Адский Хельсинки бесплатно
    Адский Хельсинки скачать торрент в хорошем качестве
    Адский Хельсинки смотреть онлайн бесплатно в хорошем качестве


    Вы не можете начинать темы
    Вы не можете отвечать на сообщения
    Вы не можете редактировать свои сообщения
    Вы не можете удалять свои сообщения
    Вы не можете голосовать в опросах
    Вы не можете прикреплять файлы к сообщениям
    Вы можете скачивать файлы