новый адрес
Мега распродажа FORZA HORIZON 4 ULTIMATE+ВСЕ DLC+ОНЛАЙН всего за 499р. 349 руб. (супер цена). Внимание количество ограничено!!!

iTunes

1+1

iTunes

мы

iTunes

1

iTunes

Чернобыль

iTunes

Ральф против интернета

Лицензия

ПШазам

Лицензия

Игра престолов

Лицензия

30
pack

ВАЖНО

!!Акция!!

Alien_RageХит недели

RePack

Resident Evil 21

ИГРА 18+

pack

RePack

Metro:Exodus

!!Акция!!

Alien_Rage

RePack

fifa19

RePack

Assassins Creed: Odyssey

RePack

NEED FOR SPEED™ PAYBACK

3 сезон

9 сезон

Бесстыжие 9 сезон

Все сериалы

все сериалы на PB.wtf

RePack

FAR CRY 5
Ребята, катастрофически не хватает 1900р. для оплаты серверов за Октябрь (всвязи с блокировками трафик упал в 3 раза), 1-2р., выручайте.
  

Серый разбойник (Борис Долин) [1956, СССР, приключения, SATRip от AVP Studio] pb.wtf

Серый разбойник через торрент pb.wtf

Раздают: 2 [ 0 KB/s ]
Размер: 744 MB | Добавлен: 2 года 9 мес. назад | Торрент скачан:44 раза
Скачать  

25-01-2017 09:10 Серый разбойник Скачать торрент  

Серый разбойник
Страна: СССР
Производство: Моснаучфильм

Жанр: приключения
Год выпуска: 1956
Продолжительность: 01:03:30

Перевод: Не требуется
Cубтитры: нет
Оригинальная аудиодорожка: русский

Режиссер: Борис Долин

В ролях:
Сергей Гребенников, Валентин Грачёв, Владимир Гуськов, Саша Копелев, Нина Шорина...
Об актёрах подробней

Описание:
В лесу недалеко от села поселилась волчья стая. Вожаком стаи был матерый волк по прозвищу Трехпалый. Дерзкие набеги волков опустошали колхозное стадо, и всякий раз Трехпалый хитро увертывался от охотников и спасал свою стаю. Когда наступила весна, трое юных друзей Сережа, Геннадий и Петя, решив избавить свой колхоз от «разбойников», пошли искать волчье логово.

Источник: DVB
Качество видео: SATRip
Формат видео: AVI

Видео: 688x512 (4:3), 25 fps, XviD ~ 1436 kbps avg, 0.163 bit/pixel
Аудио: 48 kHz, Dolby Digital AC3 2.0, 192 kbps

Раздача от:
Общее
Полное имя : Seryy.razboynik.1956.SATRip_[New-team]_by_AVP_Studio.avi
Формат : AVI
Формат/Информация : Audio Video Interleave
Размер файла : 744 Мбайт
Продолжительность : 1 ч. 3 м.
Общий поток : 1638 Кбит/сек
Программа кодирования : VirtualDubMod 1.5.10.3 | www.virtualdub-fr.org || (build 2550/release)
Библиотека кодирования : VirtualDubMod build 2550/release

Видео
Идентификатор : 0
Формат : MPEG-4 Visual
Профиль формата : Advanced Simple@L5
Параметр BVOP формата : 1
Параметр QPel формата : Нет
Параметр GMC формата : Без точки перехода
Параметр матрицы формата : Выборочная
Идентификатор кодека : XVID
Идентификатор кодека/Подсказка : XviD
Продолжительность : 1 ч. 3 м.
Битрейт : 1436 Кбит/сек
Ширина : 688 пикселей
Высота : 512 пикселей
Соотношение сторон : 4:3
Частота кадров : 25,000 кадров/сек
Цветовое пространство : YUV
Субдискретизация насыщенности : 4:2:0
Битовая глубина : 8 бит
Тип развёртки : Прогрессивная
Метод сжатия : С потерями
Бит/(Пиксели*Кадры) : 0.163
Размер потока : 652 Мбайт (88%)
Библиотека кодирования : XviD 73

Аудио
Идентификатор : 1
Формат : AC-3
Формат/Информация : Audio Coding 3
Расширение режима : CM (complete main)
Параметр Endianness формата : Big
Идентификатор кодека : 2000
Продолжительность : 1 ч. 3 м.
Вид битрейта : Постоянный
Битрейт : 192 Кбит/сек
Каналы : 2 канала
Расположение каналов : Front: L R
Частота : 48,0 КГц
Частота кадров : 31,250 кадров/сек (1536 spf)
Битовая глубина : 16 бит
Метод сжатия : С потерями
Размер потока : 87,2 Мбайт (12%)
Выравнивание : Разделение по промежуткам
Продолжительность промежутка : 40 мс. (1,00 видеокадр)
Время предзагрузки промежутка : 500 мс
pb.wtf



Скачать Серый разбойник через торрент http://s45.radikal.ru/i109/1701/8a/a4fd1d95a17f.png Скачать фильм Серый разбойник через торрент бесплантно в хорошем качестве Описание:В лесу недалеко от села поселилась волчья стая. Вожаком стаи был матерый волк по прозвищу Трехпалый. Дерзкие набеги волков ... 10 10 1
Торрент: Зарегистрирован [2017-01-25 09:10] · скачан: 44 раз
Статус: √ проверено
Размер: 744 MB
Как cкачать? Как скачать Серый разбойник через торрент | qTorrent

% Раздел Тема Автор DL S | L
Кино СССР [ 744 MB ] Серый разбойник [1956 СССР SATRip-AVC от AVP Studio] AVP Studio Скачать
1 | 0
BBC [ 2.4 GB ] BBC. Преступники Британии: разбойники пираты и бандиты / ВBC. Britain's Outlaws: Highwaymen Pirates and Rogues [сезон 1 серии 1-3 из 3] [2015 Документальный познавательный история HDTVRip ] Armstrong Скачать
1 | 0
Наши сериалы [ 2.35 GB ] Казаки - разбойники / Серии: 1-4 из 4 [2008 DVDRip] markfiter Скачать
1 | 0


>> Регистрируемся здесь <<






Отзывы и комментарии о схеме читаем и пишем здесь: ---> Отзывы и комментарии о схеме

Новые благодарочки в телеграм довольных пользователей:
скриншот   скриншот   скриншот   скриншот   скриншот
    Дорогой пользователь! Огромная просьба, поблагодарите релизера, оцените раздачу и оставьте свои комментарий, если Вы скачали Серый разбойник через торрент бесплатно! Внесите свою лепту в развитие PiratBit!
    Комментировать посты могут только пользователи прошедшие не сложную регистрацию
    Показать сообщения:    

    Серый разбойник через торрент
    Скачать бесплатно Серый разбойник
    Серый разбойник скачать торрент
    Серый разбойник смотреть онлайн
    Cкачать фильм Серый разбойник бесплатно
    Серый разбойник скачать торрент в хорошем качестве
    Серый разбойник смотреть онлайн бесплатно в хорошем качестве


    Вы не можете начинать темы
    Вы не можете отвечать на сообщения
    Вы не можете редактировать свои сообщения
    Вы не можете удалять свои сообщения
    Вы не можете голосовать в опросах
    Вы не можете прикреплять файлы к сообщениям
    Вы можете скачивать файлы