новый адрес
Ссылка на приватное зеркало всего за 1$. Внимание количество ограничено!!!

iTunes

1+1

iTunes

мы

iTunes

1

iTunes

Чернобыль

iTunes

Ральф против интернета

Лицензия

ПШазам

Лицензия

Оно 2

Лицензия

30
pack

Вам бонус

ВАЖНО

!!Акция!!

Alien_RageХит недели

RePack

Resident Evil 21

ИГРА 18+

pack

RePack

jed

!!Акция!!

Alien_Rage

RePack

fifa19

RePack

Assassins Creed: Odyssey

RePack

NEED FOR SPEED™ PAYBACK

3 сезон

9 сезон

Бесстыжие 9 сезон

Все сериалы

все сериалы на PB.wtf

RePack

FAR CRY 5
Ребята, катастрофически не хватает 1900р. для оплаты серверов за Октябрь (всвязи с блокировками трафик упал в 3 раза), 1-2р., выручайте.
  

Софья Ковалевская (Иосиф Шапиро) [1956, СССР, драма, биография, история, SATRip от AVP Studio] pb.wtf

Софья Ковалевская через торрент pb.wtf

Размер: 1.46 GB | Добавлен: 2 года 9 мес. назад | Торрент скачан:5 раз
Скачать  

25-01-2017 09:49 Софья Ковалевская Скачать торрент  

Софья Ковалевская
Страна: СССР
Производство: Ленфильм

Жанр: драма, биография, история
Год выпуска: 1956
Продолжительность: 01:34:09

Перевод: Не требуется
Cубтитры: нет
Оригинальная аудиодорожка: русский

Режиссер: Иосиф Шапиро

В ролях:
Елена Юнгер, Лев Колесов, Тамара Сезеневская, Арон Подгур, Владимир Усков, Бруно Фрейндлих, Евгения Волкова (II), Александр Жуков, Павел Суханов...
Об актёрах подробней

Описание:
Экранизация пьесы Петра Рыжея и Леонида Тубельского (братья Тур) о жизни русского ученого-математика Софьи Ковалевской, поставленной Ленинградским театром комедии.

Источник: DVB
Качество видео: SATRip
Формат видео: AVI

Видео: 688x512 (4:3), 25 fps, XviD ~ 2018 kbps avg, 0.229 bit/pixel
Аудио: 48 kHz, Dolby Digital AC3 2.0, 192 kbps

Раздача от:
Общее
Полное имя : Sofya.Kovalevskaya.1956.SATRip_[New-team]_by_AVP_Studio.avi
Формат : AVI
Формат/Информация : Audio Video Interleave
Размер файла : 1,46 Гбайт
Продолжительность : 1 ч. 34 м.
Общий поток : 2220 Кбит/сек
Программа кодирования : VirtualDubMod 1.5.10.3 | www.virtualdub-fr.org || (build 2550/release)
Библиотека кодирования : VirtualDubMod build 2550/release

Видео
Идентификатор : 0
Формат : MPEG-4 Visual
Профиль формата : Advanced Simple@L5
Параметр BVOP формата : 1
Параметр QPel формата : Нет
Параметр GMC формата : Без точки перехода
Параметр матрицы формата : Выборочная
Идентификатор кодека : XVID
Идентификатор кодека/Подсказка : XviD
Продолжительность : 1 ч. 34 м.
Битрейт : 2018 Кбит/сек
Ширина : 688 пикселей
Высота : 512 пикселей
Соотношение сторон : 4:3
Частота кадров : 25,000 кадров/сек
Цветовое пространство : YUV
Субдискретизация насыщенности : 4:2:0
Битовая глубина : 8 бит
Тип развёртки : Прогрессивная
Метод сжатия : С потерями
Бит/(Пиксели*Кадры) : 0.229
Размер потока : 1,33 Гбайт (91%)
Библиотека кодирования : XviD 73

Аудио
Идентификатор : 1
Формат : AC-3
Формат/Информация : Audio Coding 3
Расширение режима : CM (complete main)
Параметр Endianness формата : Big
Идентификатор кодека : 2000
Продолжительность : 1 ч. 34 м.
Вид битрейта : Постоянный
Битрейт : 192 Кбит/сек
Каналы : 2 канала
Расположение каналов : Front: L R
Частота : 48,0 КГц
Частота кадров : 31,250 кадров/сек (1536 spf)
Битовая глубина : 16 бит
Метод сжатия : С потерями
Размер потока : 129 Мбайт (9%)
Выравнивание : Разделение по промежуткам
Продолжительность промежутка : 40 мс. (1,00 видеокадр)
Время предзагрузки промежутка : 500 мс
pb.wtf



Скачать Софья Ковалевская через торрент http://s018.radikal.ru/i519/1701/95/f1de51a4c468.png Скачать фильм Софья Ковалевская через торрент бесплантно в хорошем качестве Описание:Экранизация пьесы Петра Рыжея и Леонида Тубельского (братья Тур) о жизни русского ученого-математика Софьи Ковалевской, ... 5 10 1
Info! Золотая раздача, скачанное не засчитывается.
Торрент: Зарегистрирован [2017-01-25 09:49] · скачан: 5 раз
Статус: √ проверено
Размер: 1.46 GB
Как cкачать? Как скачать Софья Ковалевская через торрент | qTorrent

% Раздел Тема Автор DL S | L
Кино СССР [ 1.46 GB ] Софья Ковалевская [1956 СССР биография история SATRip-AVC от AVP Studio] AVP Studio Скачать
1 | 0
Кино СССР [ 745 MB ] Софья Ковалевская [1956 СССР биография история SATRip от AVP Studio] AVP Studio Скачать
1 | 0
    Дорогой пользователь! Огромная просьба, поблагодарите релизера, оцените раздачу и оставьте свои комментарий, если Вы скачали Софья Ковалевская через торрент бесплатно! Внесите свою лепту в развитие PiratBit!
    Комментировать посты могут только пользователи прошедшие не сложную регистрацию
    Показать сообщения:    

    Софья Ковалевская через торрент
    Скачать бесплатно Софья Ковалевская
    Софья Ковалевская скачать торрент
    Софья Ковалевская смотреть онлайн
    Cкачать фильм Софья Ковалевская бесплатно
    Софья Ковалевская скачать торрент в хорошем качестве
    Софья Ковалевская смотреть онлайн бесплатно в хорошем качестве


    Вы не можете начинать темы
    Вы не можете отвечать на сообщения
    Вы не можете редактировать свои сообщения
    Вы не можете удалять свои сообщения
    Вы не можете голосовать в опросах
    Вы не можете прикреплять файлы к сообщениям
    Вы можете скачивать файлы