новый адрес
Мега распродажа FORZA HORIZON 4 ULTIMATE+ВСЕ DLC+ОНЛАЙН всего за 499р. 349 руб. (супер цена). Внимание количество ограничено!!!

iTunes

1+1

iTunes

мы

iTunes

1

iTunes

Чернобыль

iTunes

Ральф против интернета

Лицензия

ПШазам

Лицензия

Оно 2

Лицензия

30
pack

ВАЖНО

!!Акция!!

Alien_RageХит недели

RePack

Resident Evil 21

ИГРА 18+

pack

RePack

Metro:Exodus

!!Акция!!

Alien_Rage

RePack

fifa19

RePack

Assassins Creed: Odyssey

RePack

NEED FOR SPEED™ PAYBACK

3 сезон

9 сезон

Бесстыжие 9 сезон

Все сериалы

все сериалы на PB.wtf

RePack

FAR CRY 5
Ребята, катастрофически не хватает 1900р. для оплаты серверов за Октябрь (всвязи с блокировками трафик упал в 3 раза), 1-2р., выручайте.
  

Ты молодец, Анита! (Владимир Кочетов, Евгений Некрасов) [1956, СССР, драма, приключения, семейное кино, DVDRip от AVP Studio] pb.wtf

Ты молодец, Анита! через торрент pb.wtf

Размер: 745 MB | Добавлен: 2 года 9 мес. назад | Торрент скачан:6 раз
Скачать  

26-01-2017 08:08 Ты молодец, Анита! Скачать торрент  

Ты молодец, Анита!
Страна: СССР
Производство: Одесская киностудия

Жанр: драма, приключения, семейное кино
Год выпуска: 1956
Продолжительность: 01:06:41

Перевод: Не требуется
Cубтитры: нет
Оригинальная аудиодорожка: русский

Режиссер: Владимир Кочетов, Евгений Некрасов

В ролях:
Лена Доброхотова, Алла Бровченко, Леонид Чиниджанц, М. Климов, Толя Полищук, Лёня Любивый, Саша Пономаренко, Александр Гединский, Евгения Кемарская, Виктор Колпаков, Сергей Троицкий...
Об актёрах подробней

Описание:
В одном из иностранных портов на Средиземном море готовится к отплытию пароход с солдатами. Крановщица Фернана убеждает капитана не выводить судно из порта. Ночью на корабле возникает пожар. Фернану арестовывают и отправляют в тюрьму. Двенадцатилетняя Анита, сестра арестованной, решает отомстить за Фернану. На стенах домов, на бортах отправляющихся суден появляются нарисованные ею голуби. Анита становится участником и символом борьбы за мир...

Источник: DVD5 R5
Качество видео: DVDRip
Формат видео: AVI

Видео: 704x528 (4:3), 25 fps, XviD ~ 1425 kbps avg, 0.153 bit/pixel
Аудио: 48 kHz, MP3 2.0, 128 kbps

Раздача от:
Общее
Полное имя : Ty.molodec,Anita!1956.DVDRip-745_[New-team]_by_AVP_Studio.avi
Формат : AVI
Формат/Информация : Audio Video Interleave
Размер файла : 745 Мбайт
Продолжительность : 1 ч. 6 м.
Общий поток : 1563 Кбит/сек
Программа кодирования : VirtualDubMod 1.5.10.3 | www.virtualdub-fr.org || (build 2550/release)
Библиотека кодирования : VirtualDubMod build 2550/release

Видео
Идентификатор : 0
Формат : MPEG-4 Visual
Профиль формата : Advanced Simple@L5
Параметр BVOP формата : 1
Параметр QPel формата : Нет
Параметр GMC формата : Без точки перехода
Параметр матрицы формата : Выборочная
Идентификатор кодека : XVID
Идентификатор кодека/Подсказка : XviD
Продолжительность : 1 ч. 6 м.
Битрейт : 1425 Кбит/сек
Ширина : 704 пикселя
Высота : 528 пикселей
Соотношение сторон : 4:3
Частота кадров : 25,000 кадров/сек
Цветовое пространство : YUV
Субдискретизация насыщенности : 4:2:0
Битовая глубина : 8 бит
Тип развёртки : Прогрессивная
Метод сжатия : С потерями
Бит/(Пиксели*Кадры) : 0.153
Размер потока : 680 Мбайт (91%)
Библиотека кодирования : XviD 73

Аудио
Идентификатор : 1
Формат : MPEG Audio
Версия формата : Version 1
Профиль формата : Layer 3
Идентификатор кодека : 55
Идентификатор кодека/Подсказка : MP3
Продолжительность : 1 ч. 6 м.
Вид битрейта : Постоянный
Битрейт : 128 Кбит/сек
Каналы : 2 канала
Частота : 48,0 КГц
Метод сжатия : С потерями
Размер потока : 61,1 Мбайт (8%)
Выравнивание : Соединение по промежуткам
Продолжительность промежутка : 40 мс. (1,00 видеокадр)
Время предзагрузки промежутка : 504 мс.
Библиотека кодирования : LAME3.99r
Настройки программы : -m s -V 4 -q 2 -lowpass 17 -b 128
pb.wtf



Скачать Ты молодец, Анита! через торрент http://s018.radikal.ru/i518/1701/fa/a635af045e17.png Скачать фильм Ты молодец, Анита! через торрент бесплантно в хорошем качестве Описание:В одном из иностранных портов на Средиземном море готовится к отплытию пароход с солдатами. Крановщица Фернана убеждает капитана ... 5 10 1
Info! Золотая раздача, скачанное не засчитывается.
Торрент: Зарегистрирован [2017-01-26 08:08] · скачан: 6 раз
Статус: √ проверено
Размер: 745 MB
Как cкачать? Как скачать Ты молодец, Анита! через торрент | qTorrent

% Раздел Тема Автор DL S | L
Кино СССР [ 1.09 GB ] Ты молодец Анита! [1956 СССР семейное кино DVDRip-AVC от AVP Studio] AVP Studio Скачать
1 | 0
Кино СССР [ 1.09 GB ] Ты молодец Анита! [1956 СССР семейное кино DVDRip от AVP Studio] AVP Studio Скачать
1 | 0


>> Регистрируемся здесь <<






Отзывы и комментарии о схеме читаем и пишем здесь: ---> Отзывы и комментарии о схеме

Новые благодарочки в телеграм довольных пользователей:
скриншот   скриншот   скриншот   скриншот   скриншот
    Дорогой пользователь! Огромная просьба, поблагодарите релизера, оцените раздачу и оставьте свои комментарий, если Вы скачали Ты молодец, Анита! через торрент бесплатно! Внесите свою лепту в развитие PiratBit!
    Комментировать посты могут только пользователи прошедшие не сложную регистрацию
    Показать сообщения:    

    Ты молодец, Анита! через торрент
    Скачать бесплатно Ты молодец, Анита!
    Ты молодец, Анита! скачать торрент
    Ты молодец, Анита! смотреть онлайн
    Cкачать фильм Ты молодец, Анита! бесплатно
    Ты молодец, Анита! скачать торрент в хорошем качестве
    Ты молодец, Анита! смотреть онлайн бесплатно в хорошем качестве


    Вы не можете начинать темы
    Вы не можете отвечать на сообщения
    Вы не можете редактировать свои сообщения
    Вы не можете удалять свои сообщения
    Вы не можете голосовать в опросах
    Вы не можете прикреплять файлы к сообщениям
    Вы можете скачивать файлы