Ссылка на приватное зеркало нашего сайта всего за 1$. Внимание количество ограничено!!!

2 сезон

iTunes

1 сезон

1

iTunes

iTunes

iTunes

1 сезон

RePack

30

ИГРА 18+

pack

ВАЖНО

!!Акция!!

Alien_RageХит недели

RePack

MK11
pack

Забери бонус

RePack

jed

!!Акция!!

Alien_Rage

RePack

fifa19

RePack

Assassins Creed: Odyssey

RePack

NEED FOR SPEED™ PAYBACK

4 сезон

9 сезон

Бесстыжие 9 сезон

Все сериалы

все сериалы на PB.wtf

RePack

FAR CRY 5
  

Короткий фильм о любви / Krotki film o milosci (Кшиштоф Кесьлёвский) [1988, драма, мелодрама, BDRip 1080p by msltel] DUB, MVO pb.wtf

Короткий фильм о любви через торрент pb.wtf

Размер: 11.3 GB | Добавлен: 3 года 8 мес. назад | Торрент скачан:15 раз
Скачать  

26-01-2017 09:34 Короткий фильм о любви Скачать торрент  

Название: Короткий фильм о любви
Оригинальное название: Krotki film o milosc
Год выпуска: 1988
Страна: Польша
Жанр: драма, мелодрама
Продолжительность: 01:28:06
Перевод: дублированный, профессиональный многоголосый

Режиссёр: Кшиштоф Кесьлёвский

В ролях: Гражина Шаполовска, Олаф Любашенко, Стефания Ивиньска, Пётр Махалица, Артур Барцишь, Станислав Гавлик, Томаш Градовский, Рафаль Имбро, Ян Пехочиньский, Кшиштоф Коперский

Описание: 19-летний Томек — вуайерист. В свободное от работы на почте время он подглядывает за красоткой напротив Магдой. Сперва через бинокль, который завещал ему уехавший друг (тоже вуайерист), а теперь более основательно — через подзорную трубу. Поставленный ещё приятелем диагноз «КПЧД» (красивая попа, часто даёт) в результате наблюдений подтверждается. Однако чувства Томека к Магде носят хотя и патологически влюблённый, но при этом платонический характер. Узнав о том, что она находится под наблюдением юноши, Магда сама начинает испытывать к Томеку чувственный интерес, что неожиданно для всех приводит к драматическим последствиям...



Качество: BDRip 1080p
Формат: MKV
Видео: MPEG-4 AVC, 17.8 Mбит/с, 1836x1080, 23,976 кадра/с
Аудио 1: русский, AC3, 192 kbps, 2 ch, 48 kHz [дублированный, Мосфильм]
Аудио 2: русский, AC3, 192 kbps, 1 ch, 48 kHz [профессиональный многоголосый, Кармен Видео]
Аудио 3: польский, AC3, 192 kbps, 1 ch, 48 kHz [оригинал]
Субтитры 1: русские
Субтитры 2: английские
Имеются неименованные главы/чаптеры.
Общее
Уникальный идентификатор : 255133122323716046808154914711750613259 (0xBFF0DA1D4019FAA88C9C52EDE4C0990B)
Полное имя : D:\Video\Короткий фильм о любви.1988.BDRip.1080p by msltel.mkv
Формат : Matroska
Версия формата : Version 4 / Version 2
Размер файла : 11,3 Гбайт
Продолжительность : 1 ч. 28 м.
Общий поток : 18,4 Мбит/сек
Название фильма : Rip by msltel
Дата кодирования : UTC 2017-01-26 07:26:43
Программа кодирования : mkvmerge v8.2.0 ('World of Adventure') 64bit
Библиотека кодирования : libebml v1.3.1 + libmatroska v1.4.2

Видео
Идентификатор : 1
Формат : AVC
Формат/Информация : Advanced Video Codec
Профиль формата : High@L4.1
Параметр CABAC формата : Да
Параметр ReFrames формата : 4 кадра
Идентификатор кодека : V_MPEG4/ISO/AVC
Продолжительность : 1 ч. 28 м.
Битрейт : 17,8 Мбит/сек
Ширина : 1836 пикселей
Высота : 1080 пикселей
Соотношение сторон : 1,700
Режим частоты кадров : Постоянный
Частота кадров : 23,976 (24000/1001) кадра/сек
Цветовое пространство : YUV
Субдискретизация насыщенности : 4:2:0
Битовая глубина : 8 бит
Тип развёртки : Прогрессивная
Бит/(Пиксели*Кадры) : 0.374
Размер потока : 10,9 Гбайт (97%)
Библиотека кодирования : x264 core 146 r2538 121396c
Настройки программы : cabac=1 / ref=4 / deblock=1:-3:-2 / analyse=0x3:0x113 / me=umh / subme=11 / psy=1 / psy_rd=1.00:0.15 / mixed_ref=1 / me_range=32 / chroma_me=1 / trellis=2 / 8x8dct=1 / cqm=0 / deadzone=21,11 / fast_pskip=0 / chroma_qp_offset=-3 / threads=6 / lookahead_threads=1 / sliced_threads=0 / nr=0 / decimate=1 / interlaced=0 / bluray_compat=0 / constrained_intra=0 / bframes=8 / b_pyramid=2 / b_adapt=2 / b_bias=0 / direct=1 / weightb=1 / open_gop=0 / weightp=2 / keyint=230 / keyint_min=23 / scenecut=40 / intra_refresh=0 / rc_lookahead=40 / rc=crf / mbtree=0 / crf=19.1 / qcomp=0.60 / qpmin=0 / qpmax=69 / qpstep=4 / vbv_maxrate=62500 / vbv_bufsize=78125 / crf_max=0.0 / nal_hrd=none / filler=0 / ip_ratio=1.40 / pb_ratio=1.30 / aq=1:1.00
Язык : Polish
Default : Да
Forced : Нет

Аудио #1
Идентификатор : 2
Формат : AC-3
Формат/Информация : Audio Coding 3
Расширение режима : CM (complete main)
Параметр Endianness формата : Big
Идентификатор кодека : A_AC3
Продолжительность : 1 ч. 28 м.
Вид битрейта : Постоянный
Битрейт : 192 Кбит/сек
Каналы : 2 канала
Расположение каналов : Front: L R
Частота : 48,0 КГц
Частота кадров : 31,250 кадров/сек (1536 spf)
Метод сжатия : С потерями
Размер потока : 121 Мбайт (1%)
Заголовок : DUB (Мосфильм)
Язык : Russian
Default : Да
Forced : Нет

Аудио #2
Идентификатор : 3
Формат : AC-3
Формат/Информация : Audio Coding 3
Расширение режима : CM (complete main)
Параметр Endianness формата : Big
Идентификатор кодека : A_AC3
Продолжительность : 1 ч. 28 м.
Вид битрейта : Постоянный
Битрейт : 192 Кбит/сек
Каналы : 1 канал
Расположение каналов : Front: C
Частота : 48,0 КГц
Частота кадров : 31,250 кадров/сек (1536 spf)
Метод сжатия : С потерями
Размер потока : 121 Мбайт (1%)
Заголовок : MVO (Кармен Видео)
Язык : Russian
Default : Нет
Forced : Нет

Аудио #3
Идентификатор : 4
Формат : AC-3
Формат/Информация : Audio Coding 3
Расширение режима : CM (complete main)
Параметр Endianness формата : Big
Идентификатор кодека : A_AC3
Продолжительность : 1 ч. 28 м.
Вид битрейта : Постоянный
Битрейт : 192 Кбит/сек
Каналы : 1 канал
Расположение каналов : Front: C
Частота : 48,0 КГц
Частота кадров : 31,250 кадров/сек (1536 spf)
Метод сжатия : С потерями
Размер потока : 121 Мбайт (1%)
Заголовок : original
Язык : Polish
Default : Нет
Forced : Нет

Текст #1
Идентификатор : 5
Формат : UTF-8
Идентификатор кодека : S_TEXT/UTF8
Идентификатор кодека/Информация : UTF-8 Plain Text
Продолжительность : 1 ч. 24 м.
Битрейт : 26 бит/сек
Count of elements : 409
Размер потока : 16,4 Кбайт (0%)
Заголовок : русские
Язык : Russian
Default : Нет
Forced : Нет

Текст #2
Идентификатор : 6
Формат : UTF-8
Идентификатор кодека : S_TEXT/UTF8
Идентификатор кодека/Информация : UTF-8 Plain Text
Продолжительность : 1 ч. 24 м.
Битрейт : 14 бит/сек
Count of elements : 406
Размер потока : 8,95 Кбайт (0%)
Заголовок : английские
Язык : English
Default : Нет
Forced : Нет

Меню
00:00:00.000 : :Chapter 01
00:07:17.686 : :Chapter 02
00:15:02.693 : :Chapter 03
00:21:52.728 : :Chapter 04
00:29:40.862 : :Chapter 05
00:35:19.117 : :Chapter 06
00:47:12.579 : :Chapter 07
00:53:37.922 : :Chapter 08
01:01:31.979 : :Chapter 09
01:11:57.604 : :Chapter 10
01:18:55.479 : :Chapter 11
pb.wtf



Скачать Короткий фильм о любви через торрент http://s018.radikal.ru/i522/1701/49/d1606d3719fd.png Скачать фильм Короткий фильм о любви через торрент бесплантно в хорошем качестве Описание: 19-летний Томек — вуайерист. В свободное от работы на почте время он подглядывает за красоткой напротив Магдой. Сперва через ... 6.5 10 4
Info! Золотая раздача, скачанное не засчитывается.
Торрент: Зарегистрирован [2017-01-26 09:34] · скачан: 15 раз
Статус: √ проверено
Размер: 11.3 GB
Как cкачать? Как скачать Короткий фильм о любви через торрент | qTorrent

% Раздел Тема Автор DL S | L
Фильмы [HD 720p, 1080p] (Хороший звук DUB, MVO) [ 3.97 GB ] Короткий фильм о любви / Krotki film o milosci [1988 BDRip 720p by msltel] DUB MVO msltel Скачать
1 | 0

28-11-2019 20:33  

Отключить всю рекламу на сайте

    Дорогой пользователь! Огромная просьба, поблагодарите релизера, оцените раздачу и оставьте свои комментарий, если Вы скачали Короткий фильм о любви через торрент бесплатно! Внесите свою лепту в развитие PiratBit!
    Комментировать посты могут только пользователи прошедшие не сложную регистрацию
    Показать сообщения:    

    Короткий фильм о любви через торрент
    Скачать бесплатно Короткий фильм о любви
    Короткий фильм о любви скачать торрент
    Короткий фильм о любви смотреть онлайн
    Cкачать фильм Короткий фильм о любви бесплатно
    Короткий фильм о любви скачать торрент в хорошем качестве
    Короткий фильм о любви смотреть онлайн бесплатно в хорошем качестве


    Вы не можете начинать темы
    Вы не можете отвечать на сообщения
    Вы не можете редактировать свои сообщения
    Вы не можете удалять свои сообщения
    Вы не можете голосовать в опросах
    Вы не можете прикреплять файлы к сообщениям
    Вы можете скачивать файлы