Ссылка на приватное зеркало нашего сайта всего за 1$. Внимание количество ограничено!!!

2 сезон

iTunes

1 сезон

1

iTunes

iTunes

iTunes

1 сезон

RePack

30

ИГРА 18+

pack

ВАЖНО

!!Акция!!

Alien_RageХит недели

RePack

MK11
pack

Забери бонус

RePack

jed

!!Акция!!

Alien_Rage

RePack

fifa19

RePack

Assassins Creed: Odyssey

RePack

NEED FOR SPEED™ PAYBACK

4 сезон

9 сезон

Бесстыжие 9 сезон

Все сериалы

все сериалы на PB.wtf

RePack

FAR CRY 5
  

Джек Ричер 2: Никогда не возвращайся / Reacher: Never Go Back (Эдвард Цвик) [2016, боевик, триллер, криминал, детектив, приключения, BDRip 1080p] [Dub] [Лицензия EUR] + [Ukr DUB] pb.wtf

Джек Ричер 2: Никогда не возвращайся через торрент pb.wtf

Размер: 13.97 GB | Добавлен: 3 года 8 мес. назад | Торрент скачан:498 раз
Скачать  

26-01-2017 17:44 Джек Ричер 2: Никогда не возвращайся Скачать торрент  

Джек Ричер 2: Никогда не возвращайся / Jack Reacher: Never Go Back
Год выхода: 2016
Жанр: боевик, триллер, криминал, детектив, приключения
Выпущено: Китай, США
Продолжительность: 01:58:25
Перевод: Профессиональный (дублированный) [Лицензия EUR] - русский
Перевод: Профессиональный (дублированный) [MEGOGO] - украинский
Субтитры: русские (полные, форсированные), украинские (форсированные), английские

Режиссер: Эдвард Цвик

В ролях: Том Круз, Коби Смолдерс, Роберт Неппер, Даника Ярош, Нинджа Н. Деву, Элдис Ходж, Холт МакКэллани, Мэдалин Хорчер, Чейз Савой, Сью-Линн Ансари

О фильме: Экс-военный Джек Ричер приезжает в Вашингтон, чтобы впервые встретиться с майором Сьюзен Тернер, которая возглавила его бывшее подразделение и не раз выручала его в непростых ситуациях. По странному стечению обстоятельств буквально накануне его визита майора арестовывают по обвинению в измене… Ричеру, уверенному в невиновности Сьюзен, предстоит освободить ее и раскрыть заговор, ниточки которого тянутся на самый верх. Стремясь докопаться до правды, он также делает поразительное открытие, способное раз и навсегда изменить его жизнь…


Раздача от &

Файл
Качество: BDRip 1080p
Формат: MKV
Видео: MPEG-4 AVC Video ~15.5 Mbps 1920 x 804 / 23,976 fps / 2.40:1 / High Profile 4.1
Аудио: Русский: 48 kHz, AC3 Dolby Digital, 3/2 (L,C,R,l,r) + LFE ch, ~640 kbps
Аудио: Украинский: 48 kHz, AC3 Dolby Digital, 2.0 (L,R), ~ 192 Кбит/с
Аудио: Английский: 48 kHz, AC3 Dolby Digital, 3/2 (L,C,R,l,r) + LFE ch, ~640 kbps
Уникальный идентификатор : 189258558993372540418419669692641414605 (0x8E61DF62B181390698FBCF1EEFAB8DCD)
Полное имя : E:\ELRippo\Jack.Reacher.Never.Go.Back.2016.71080p.DD.5.1.x264 -TNClub.mkv
Формат : Matroska
Версия формата : Version 4 / Version 2
Размер файла : 14,0 Гбайт
Продолжительность : 1 ч. 58 м.
Общий поток : 16,9 Мбит/сек
Название фильма : Jack.Reacher.Never.Go.Back.2016.1080p.DD5.1.x264 -TNClub
Дата кодирования : UTC 2017-01-26 06:29:02
Программа кодирования : mkvmerge v8.2.0 ('World of Adventure') 64bit
Библиотека кодирования : libebml v1.3.1 + libmatroska v1.4.2
Обложка : Yes
Attachments : cover.png

Видео
Идентификатор : 1
Формат : AVC
Формат/Информация : Advanced Video Codec
Профиль формата : High@L4.1
Параметр CABAC формата : Да
Параметр ReFrames формата : 5 кадров
Идентификатор кодека : V_MPEG4/ISO/AVC
Продолжительность : 1 ч. 58 м.
Битрейт : 15,5 Мбит/сек
Ширина : 1920 пикселей
Высота : 804 пикселя
Соотношение сторон : 2,40:1
Режим частоты кадров : Постоянный
Частота кадров : 23,976 (24000/1001) кадра/сек
Цветовое пространство : YUV
Субдискретизация насыщенности : 4:2:0
Битовая глубина : 8 бит
Тип развёртки : Прогрессивная
Бит/(Пиксели*Кадры) : 0.418
Размер потока : 12,8 Гбайт (91%)
Заголовок : Jack.Reacher.Never.Go.Back.2016.1080p.DD5.1.x264 -TNClub
Библиотека кодирования : x264 core 148 r2638 7599210
Настройки программы : cabac=1 / ref=5 / deblock=1:-2:-1 / analyse=0x3:0x133 / me=umh / subme=11 / psy=1 / psy_rd=1.10:0.05 / mixed_ref=1 / me_range=32 / chroma_me=1 / trellis=2 / 8x8dct=1 / cqm=0 / deadzone=21,11 / fast_pskip=0 / chroma_qp_offset=-3 / threads=6 / lookahead_threads=1 / sliced_threads=0 / nr=0 / decimate=1 / interlaced=0 / bluray_compat=0 / constrained_intra=0 / bframes=7 / b_pyramid=2 / b_adapt=2 / b_bias=0 / direct=3 / weightb=1 / open_gop=0 / weightp=2 / keyint=230 / keyint_min=23 / scenecut=40 / intra_refresh=0 / rc_lookahead=60 / rc=crf / mbtree=0 / crf=17.2 / qcomp=0.60 / qpmin=0 / qpmax=69 / qpstep=4 / vbv_maxrate=62500 / vbv_bufsize=78125 / crf_max=0.0 / nal_hrd=none / filler=0 / ip_ratio=1.40 / pb_ratio=1.30 / aq=1:0.90
Язык : English
Default : Да
Forced : Нет

Аудио #1
Идентификатор : 2
Формат : AC-3
Формат/Информация : Audio Coding 3
Расширение режима : CM (complete main)
Параметр Endianness формата : Big
Идентификатор кодека : A_AC3
Продолжительность : 1 ч. 58 м.
Вид битрейта : Постоянный
Битрейт : 640 Кбит/сек
Каналы : 6 каналов
Расположение каналов : Front: L C R, Side: L R, LFE
Частота : 48,0 КГц
Частота кадров : 31,250 кадров/сек (1536 spf)
Битовая глубина : 16 бит
Метод сжатия : С потерями
Размер потока : 541 Мбайт (4%)
Заголовок : DD5.1@640kbps
Язык : Russian
Default : Да
Forced : Нет

Аудио #2
Идентификатор : 3
Формат : AC-3
Формат/Информация : Audio Coding 3
Расширение режима : CM (complete main)
Параметр Endianness формата : Big
Идентификатор кодека : A_AC3
Продолжительность : 1 ч. 58 м.
Вид битрейта : Постоянный
Битрейт : 192 Кбит/сек
Каналы : 2 канала
Расположение каналов : Front: L R
Частота : 48,0 КГц
Частота кадров : 31,250 кадров/сек (1536 spf)
Битовая глубина : 16 бит
Метод сжатия : С потерями
Размер потока : 162 Мбайт (1%)
Заголовок : DD2.0@192kbps
Язык : Ukrainian
Default : Нет
Forced : Нет

Аудио #3
Идентификатор : 4
Формат : AC-3
Формат/Информация : Audio Coding 3
Расширение режима : CM (complete main)
Параметр Endianness формата : Big
Идентификатор кодека : A_AC3
Продолжительность : 1 ч. 58 м.
Вид битрейта : Постоянный
Битрейт : 640 Кбит/сек
Каналы : 6 каналов
Расположение каналов : Front: L C R, Side: L R, LFE
Частота : 48,0 КГц
Частота кадров : 31,250 кадров/сек (1536 spf)
Битовая глубина : 16 бит
Метод сжатия : С потерями
Размер потока : 541 Мбайт (4%)
Заголовок : DD5.1@640kbps
Язык : English
Default : Нет
Forced : Нет

Текст #1
Идентификатор : 5
Формат : UTF-8
Идентификатор кодека : S_TEXT/UTF8
Идентификатор кодека/Информация : UTF-8 Plain Text
Продолжительность : 1 ч. 13 м.
Битрейт : 0 бит/сек
Count of elements : 8
Размер потока : 406 байт (0%)
Заголовок : Forced
Язык : Russian
Default : Да
Forced : Нет

Текст #2
Идентификатор : 6
Формат : UTF-8
Идентификатор кодека : S_TEXT/UTF8
Идентификатор кодека/Информация : UTF-8 Plain Text
Продолжительность : 1 ч. 52 м.
Битрейт : 79 бит/сек
Count of elements : 1277
Размер потока : 65,5 Кбайт (0%)
Язык : Russian
Default : Нет
Forced : Нет

Текст #3
Идентификатор : 7
Формат : UTF-8
Идентификатор кодека : S_TEXT/UTF8
Идентификатор кодека/Информация : UTF-8 Plain Text
Продолжительность : 1 ч. 13 м.
Битрейт : 0 бит/сек
Count of elements : 8
Размер потока : 406 байт (0%)
Заголовок : Forced
Язык : Ukrainian
Default : Нет
Forced : Нет

Текст #4
Идентификатор : 8
Формат : UTF-8
Идентификатор кодека : S_TEXT/UTF8
Идентификатор кодека/Информация : UTF-8 Plain Text
Продолжительность : 1 ч. 57 м.
Битрейт : 78 бит/сек
Count of elements : 1431
Размер потока : 67,6 Кбайт (0%)
Язык : Ukrainian
Default : Нет
Forced : Нет

Текст #5
Идентификатор : 9
Формат : UTF-8
Идентификатор кодека : S_TEXT/UTF8
Идентификатор кодека/Информация : UTF-8 Plain Text
Продолжительность : 1 ч. 51 м.
Битрейт : 50 бит/сек
Count of elements : 1387
Размер потока : 41,2 Кбайт (0%)
Язык : English
Default : Нет
Forced : Нет

Меню
00:00:00.000 : en:00:00:00.000
00:07:00.627 : en:00:07:00.627
00:15:19.876 : en:00:15:19.876
00:20:33.856 : en:00:20:33.856
00:29:04.576 : en:00:29:04.576
00:34:35.739 : en:00:34:35.739
00:42:40.139 : en:00:42:40.139
00:49:28.005 : en:00:49:28.005
00:58:44.561 : en:00:58:44.561
01:03:10.161 : en:01:03:10.161
01:09:35.753 : en:01:09:35.753
01:15:05.333 : en:01:15:05.333
01:21:59.663 : en:01:21:59.663
01:27:07.220 : en:01:27:07.220
01:34:14.064 : en:01:34:14.064
01:46:44.855 : en:01:46:44.855
01:53:30.845 : en:01:53:30.845
pb.wtf



Скачать Джек Ричер 2: Никогда не возвращайся через торрент http://i85.fastpic.ru/big/2016/1021/f8/ac5246441eef5664ead2b779e856acf8.png Скачать фильм Джек Ричер 2: Никогда не возвращайся через торрент бесплантно в хорошем качестве О фильме: Экс-военный Джек Ричер приезжает в Вашингтон, чтобы впервые встретиться с майором Сьюзен Тернер, которая возглавила его бывшее ... 10 10 9
Info! Золотая раздача, скачанное не засчитывается.
Торрент: Зарегистрирован [2017-01-26 17:44] · скачан: 498 раз
Статус: √ проверено
Размер: 13.97 GB
Как cкачать? Как скачать Джек Ричер 2: Никогда не возвращайся через торрент | qTorrent

% Раздел Тема Автор DL S | L
Фильмы [HD 720p, 1080p] (Хороший звук DUB, MVO) [ 11.01 GB ] Джек Ричер 2: Никогда не возвращайся / Jack Reacher: Never Go Back [2016 BDRip 1080p] DUB + 4хAVO - KORSAR kisa1980 Скачать
1 | 0
Фильмы (HD 720p, 1080p) (48-60 fps) [ 3.01 GB ] Джек Ричер 2: Никогда не возвращайся / Jack Reacher: Never Go Back [2016 BDRip - HEVC 1080p 12 bit 60 FPS] - [] dd2d3 Скачать
2 | 0
Ultra HD (UHD: 2K, 4K, 8K) — видео сверхвысокой чёткости [ 58.42 GB ] Джек Ричер 2: Никогда не возвращайся / Jack Reacher: Never Go Back [2016 UHD BDRemux 2160p] DUB + 4xAVO [] sheker187 Скачать
1 | 0
Фильмы (Blu-ray, BD-Remux, HDDVD) [ 27.06 GB ] Джек Ричер 2: Никогда не возвращайся / Jack Reacher: Never Go Back [2016 BD Remux 1080p] [] DUB+AVO bober100 Скачать
1 | 0
Фильмы 2016 [DVDrip, WEB-DLRip, HDrip] (DUB, MVO) [ 4.02 GB ] Джек Ричер 2: Никогда не возвращайся / Jack Reacher: Never Go Back [2016 BDRip-AVC] - [] 4xAVO - ExKinoRay Enigma2010 Скачать
1 | 0
Фильмы [HD 720p, 1080p] (Хороший звук DUB, MVO) [ 5.76 GB ] Джек Ричер 2: Никогда не возвращайся / Jack Reacher: Never Go Back [2016 BDRip 720p] potroks Скачать
1 | 0
Ultra HD (UHD: 2K, 4K, 8K) — видео сверхвысокой чёткости [ 45.87 GB ] Джек Ричер 2: Никогда не возвращайся / Jack Reacher: Never Go Back [2016 UHD WEBRip 2160p] - [] sheker187 Скачать
1 | 0

28-11-2019 20:33  

Отключить всю рекламу на сайте

26-01-2017 18:36 Джек Ричер 2: Никогда не возвращайся Скачать торрент  

вот это картинкаpb.wtf



02-02-2017 20:22 Джек Ричер 2: Никогда не возвращайся Скачать торрент  

DAVINCHI писал(а):

вот это картинка

говно первая в 100 раз лучшеpb.wtf



    Дорогой пользователь! Огромная просьба, поблагодарите релизера, оцените раздачу и оставьте свои комментарий, если Вы скачали Джек Ричер 2: Никогда не возвращайся через торрент бесплатно! Внесите свою лепту в развитие PiratBit!
    Комментировать посты могут только пользователи прошедшие не сложную регистрацию
    Показать сообщения:    

    Джек Ричер 2: Никогда не возвращайся через торрент
    Скачать бесплатно Джек Ричер 2: Никогда не возвращайся
    Джек Ричер 2: Никогда не возвращайся скачать торрент
    Джек Ричер 2: Никогда не возвращайся смотреть онлайн
    Cкачать фильм Джек Ричер 2: Никогда не возвращайся бесплатно
    Джек Ричер 2: Никогда не возвращайся скачать торрент в хорошем качестве
    Джек Ричер 2: Никогда не возвращайся смотреть онлайн бесплатно в хорошем качестве


    Вы не можете начинать темы
    Вы не можете отвечать на сообщения
    Вы не можете редактировать свои сообщения
    Вы не можете удалять свои сообщения
    Вы не можете голосовать в опросах
    Вы не можете прикреплять файлы к сообщениям
    Вы можете скачивать файлы