Ссылка на приватное зеркало всего за 1$. Внимание количество ограничено!!!

iTunes

iTunes

iTunes

1

iTunes

iTunes

iTunes

iTunes

iTunes

30
pack

$ от Little Big

ВАЖНО

!!Акция!!

Alien_RageХит недели

RePack

Resident Evil 21

ИГРА 18+

pack

RePack

jed

!!Акция!!

Alien_Rage

RePack

fifa19

RePack

Assassins Creed: Odyssey

RePack

NEED FOR SPEED™ PAYBACK

4 сезон

9 сезон

Бесстыжие 9 сезон

Все сериалы

все сериалы на PB.wtf

RePack

FAR CRY 5
  

Тролли / Trolls (Уолт Дорн, Майк Митчелл) [2016, мультфильм, мюзикл, фэнтези, BDRip-AVC] Дубляж - [Лицензия / iTunes] R.G.Resident pb.wtf

Тролли через торрент pb.wtf

Раздают: 1 [ 0 KB/s ]
Размер: 2.11 GB | Добавлен: 3 года 5 мес. назад | Торрент скачан:613 раз
Скачать  

26-01-2017 22:39 Тролли Скачать торрент  

Тролли / Trolls
««Найди своё счастье»»

Год выпуска: 2016
Страна: США
Жанр: мультфильм, мюзикл, фэнтези, комедия, приключения, семейный
Продолжительность: 01:32:27
Перевод: Дубляж - [Лицензия / iTunes]
Субтитры: русские (forced), русские (full), английские (full), английские (SDH)
Режиссер: Уолт Дорн, Майк Митчелл
В ролях:

Анна Кендрик (Poppy, озвучка), Джастин Тимберлэйк (Branch, озвучка), Зои Дешанель (Bridget, озвучка), Кристофер Минц-Плассе (King Gristle, озвучка), Кристин Барански (Chef, озвучка), Расселл Брэнд (Creek, озвучка), Гвен Стефани (DJ Suki, озвучка), Джон Клиз (King Gristle Sr., озвучка), Джеймс Корден (Biggie, озвучка), Джеффри Тэмбор (King Peppy, озвучка), Рон Фанчес (Cooper, озвучка), Аино Яво (Satin, озвучка)
Описание:
Отправляясь в увлекательное приключение, которое заведет ее далеко от привычного ей мира, Розочка объединяет усилия с самым мрачным троллем на свете по имени Цветан для достижения успеха в своей смелой миссии спасти ее друзей из тисков зловещих бергенов и их лидера, короля Хрящ Старший. Невероятные приключения Розочки проверят ее силу, покажут ее истинную суть и бросят вызов ее способности ударяться в пение в любой момент.
Мировая премьера: 8 октября 2016

MPAA: PG - Рекомендуется присутствие родителей
Качество: BDRip-AVC Rip by
Формат: MKV
Видео: AVC, 1024x436 (2.35:1), 2434 kbps, 23,976 fps, 0,227 bpp
Аудио №1: русский / AC3 / 5.1 / 48 kHz / 384 kbps /
Аудио №2: английский / AC3 / 5.1 / 48 kHz / 448 kbps /
General
Unique ID : 192465394269541154821925629059600033991 (0x90CB7C925AE308EE9BD69BC7003128C7)
Complete name : D:\download\Trolls.2016.BDRip-AVC by schultz R.G.Resident.mkv
Format : Matroska
Format version : Version 4 / Version 2
File size : 2.11 GiB
Duration : 1 h 32 min
Overall bit rate : 3 267 kb/s
Encoded date : UTC 2017-01-26 22:23:02
Writing application : mkvmerge v8.9.0 ('Father Daughter') 64bit
Writing library : libebml v1.3.3 + libmatroska v1.4.4

Video
ID : 1
Format : AVC
Format/Info : Advanced Video Codec
Format profile : High@L4.1
Format settings, CABAC : Yes
Format settings, ReFrames : 12 frames
Codec ID : V_MPEG4/ISO/AVC
Duration : 1 h 32 min
Bit rate : 2 434 kb/s
Width : 1 024 pixels
Height : 436 pixels
Display aspect ratio : 2.35:1
Frame rate mode : Constant
Frame rate : 23.976 (23976/1000) FPS
Color space : YUV
Chroma subsampling : 4:2:0
Bit depth : 8 bits
Scan type : Progressive
Bits/(Pixel*Frame) : 0.227
Stream size : 1.57 GiB (74%)
Writing library : x264 core 146 r2538 121396c
Encoding settings : cabac=1 / ref=12 / deblock=1:-3:-3 / analyse=0x3:0x113 / me=umh / subme=11 / psy=1 / psy_rd=1.00:0.00 / mixed_ref=1 / me_range=48 / chroma_me=1 / trellis=2 / 8x8dct=1 / cqm=0 / deadzone=21,11 / fast_pskip=0 / chroma_qp_offset=-2 / threads=12 / lookahead_threads=3 / sliced_threads=0 / nr=0 / decimate=0 / interlaced=0 / bluray_compat=0 / constrained_intra=0 / bframes=11 / b_pyramid=2 / b_adapt=2 / b_bias=0 / direct=3 / weightb=1 / open_gop=0 / weightp=2 / keyint=240 / keyint_min=23 / scenecut=40 / intra_refresh=0 / rc_lookahead=40 / rc=2pass / mbtree=1 / bitrate=2434 / ratetol=1.0 / qcomp=0.60 / qpmin=0 / qpmax=69 / qpstep=4 / cplxblur=20.0 / qblur=0.5 / vbv_maxrate=50000 / vbv_bufsize=62500 / nal_hrd=none / filler=0 / ip_ratio=1.40 / aq=1:1.00
Language : English
Default : Yes
Forced : No

Audio #1
ID : 2
Format : AC-3
Format/Info : Audio Coding 3
Mode extension : CM (complete main)
Format settings, Endianness : Big
Codec ID : A_AC3
Duration : 1 h 32 min
Bit rate mode : Constant
Bit rate : 384 kb/s
Channel(s) : 6 channels
Channel positions : Front: L C R, Side: L R, LFE
Sampling rate : 48.0 kHz
Frame rate : 31.250 FPS (1536 spf)
Compression mode : Lossy
Stream size : 254 MiB (12%)
Language : Russian
Default : Yes
Forced : Yes

Audio #2
ID : 3
Format : AC-3
Format/Info : Audio Coding 3
Mode extension : CM (complete main)
Format settings, Endianness : Big
Codec ID : A_AC3
Duration : 1 h 32 min
Bit rate mode : Constant
Bit rate : 448 kb/s
Channel(s) : 6 channels
Channel positions : Front: L C R, Side: L R, LFE
Sampling rate : 48.0 kHz
Frame rate : 31.250 FPS (1536 spf)
Compression mode : Lossy
Stream size : 296 MiB (14%)
Language : English
Default : No
Forced : No

Text #1
ID : 4
Format : UTF-8
Codec ID : S_TEXT/UTF8
Codec ID/Info : UTF-8 Plain Text
Duration : 1 h 24 min
Bit rate : 0 b/s
Count of elements : 2
Stream size : 65.0 Bytes (0%)
Title : forced
Language : Russian
Default : Yes
Forced : No

Text #2
ID : 5
Format : UTF-8
Codec ID : S_TEXT/UTF8
Codec ID/Info : UTF-8 Plain Text
Duration : 1 h 31 min
Bit rate : 98 b/s
Count of elements : 1358
Stream size : 66.0 KiB (0%)
Title : full
Language : Russian
Default : No
Forced : No

Text #3
ID : 6
Format : UTF-8
Codec ID : S_TEXT/UTF8
Codec ID/Info : UTF-8 Plain Text
Duration : 1 h 23 min
Bit rate : 65 b/s
Count of elements : 1380
Stream size : 39.9 KiB (0%)
Title : full
Language : English
Default : No
Forced : No

Text #4
ID : 7
Format : UTF-8
Codec ID : S_TEXT/UTF8
Codec ID/Info : UTF-8 Plain Text
Duration : 1 h 29 min
Bit rate : 72 b/s
Count of elements : 1895
Stream size : 47.6 KiB (0%)
Title : SDH
Language : English
Default : No
Forced : No

Menu
00:00:00.000 : en:
00:02:20.474 : en:
00:06:22.924 : en:
00:10:42.642 : en:
00:13:26.597 : en:
00:18:34.363 : en:
00:22:12.790 : en:
00:25:41.081 : en:
00:28:53.732 : en:
00:32:55.098 : en:
00:36:33.107 : en:
00:40:56.787 : en:
00:44:21.659 : en:
00:47:27.970 : en:
00:51:27.084 : en:
00:55:45.675 : en:
00:59:58.761 : en:
01:03:17.084 : en:
01:05:17.663 : en:
01:07:56.530 : en:
01:10:25.262 : en:
01:13:31.657 : en:
01:16:21.243 : en:
01:21:44.733 : en:

pb.wtf



Скачать Тролли через торрент http://i77.fastpic.ru/big/2016/0417/a7/808a646271c761f7c7d87df3d366b3a7.png Скачать фильм Тролли через торрент бесплантно в хорошем качестве Описание: Отправляясь в увлекательное , которое заведет ее далеко от привычного ей мира, Розочка объединяет усилия с самым ... 9 10 10
Info! Золотая раздача, скачанное не засчитывается.
Торрент: Зарегистрирован [2017-01-26 22:39] · скачан: 613 раз
Статус: √ проверено
Размер: 2.11 GB
Как cкачать? Как скачать Тролли через торрент | qTorrent

28-11-2019 20:33  

Отключить всю рекламу на сайте

27-01-2017 05:05 Тролли Скачать торрент  

В 3D ожидается?pb.wtf



    Дорогой пользователь! Огромная просьба, поблагодарите релизера, оцените раздачу и оставьте свои комментарий, если Вы скачали Тролли через торрент бесплатно! Внесите свою лепту в развитие PiratBit!
    Комментировать посты могут только пользователи прошедшие не сложную регистрацию
    Показать сообщения:    

    Тролли через торрент
    Скачать бесплатно Тролли
    Тролли скачать торрент
    Тролли смотреть онлайн
    Cкачать фильм Тролли бесплатно
    Тролли скачать торрент в хорошем качестве
    Тролли смотреть онлайн бесплатно в хорошем качестве


    Вы не можете начинать темы
    Вы не можете отвечать на сообщения
    Вы не можете редактировать свои сообщения
    Вы не можете удалять свои сообщения
    Вы не можете голосовать в опросах
    Вы не можете прикреплять файлы к сообщениям
    Вы можете скачивать файлы