новый адрес
Ссылка на приватное зеркало всего за 1$. Внимание количество ограничено!!!

iTunes

1+1

iTunes

мы

WEB-DL

1

iTunes

Чернобыль

iTunes

Ральф против интернета

Лицензия

ПШазам

Лицензия

Оно 2

Лицензия

30
pack

Вам бонус

ВАЖНО

!!Акция!!

Alien_RageХит недели

RePack

Resident Evil 21

ИГРА 18+

pack

RePack

jed

!!Акция!!

Alien_Rage

RePack

fifa19

RePack

Assassins Creed: Odyssey

RePack

NEED FOR SPEED™ PAYBACK

3 сезон

9 сезон

Бесстыжие 9 сезон

Все сериалы

все сериалы на PB.wtf

RePack

FAR CRY 5
Ребята, катастрофически не хватает 1900р. для оплаты серверов за Октябрь (всвязи с блокировками трафик упал в 3 раза), 1-2р., выручайте.
  

Урок истории (Лев Арнштам, Христо Писков, Михаил Ромм) [1956, СССР, Болгария, драма, VHSRip от AVP Studio] pb.wtf

Урок истории через торрент pb.wtf

Размер: 1.09 GB | Добавлен: 2 года 10 мес. назад | Торрент скачан:4 раза
Скачать  

27-01-2017 08:57 Урок истории Скачать торрент  

Урок истории
Страна: СССР
Производство: Мосфильм, Киностудия БОЯНА

Жанр: драма
Год выпуска: 1956
Продолжительность: 01:25:01

Перевод: Не требуется
Cубтитры: нет
Оригинальная аудиодорожка: русский

Режиссер: Лев Арнштам, Христо Писков, Михаил Ромм

В ролях:
Стефан Савов, Цветана Арнаудова, Иван Тонев, Геннадий Юдин, Велта Лине, Борис Бурляев, Аполлон Ячницкий, Юрий Аверин, Э. Багаров, Петр Березов, Николай Волков (старший), Георгий Калоянчев, Янис Осис, Иван Соловьёв, Евгений Кузнецов, Андрей Файт, В. Яковлев, Константин Нассонов...
Об актёрах подробней

Описание:
1933 год. Георгий Димитров приезжает в Берлин, чтобы установить связи с находящимися здесь болгарскими коммунистами. Фашистские главари прилагают все усилия, чтобы сломить сопротивление коммунистов. Геринг замышляет провокацию: во время поджога рейхстага его человека должны поймать с билетом члена компартии. Рейхстаг в огне, провокатор Ван дер Люббе и депутат рейхстага Торглер арестованы. Начинаются массовые репрессии против коммунистов. В руки фашистского суда попадает и Димитров. Однако в зале суда рабочие, в числе которых Генрих Ланге, доказывают беспочвенность обвинительного процесса. Фашисты вынуждены оправдать Димитрова. Советское правительство предоставляет ему право политического убежища.

Источник: VHS
Качество видео: VHSRip
Формат видео: AVI

Видео: 704x528 (4:3), 25 fps, XviD ~ 1640 kbps avg, 0.176 bit/pixel
Аудио: 48 kHz, Dolby Digital AC3 2.0, 192 kbps

Раздача от:
Общее
Полное имя : Urok.istorii.1956.VHSRip_[New-team]_by_AVP_Studio.avi
Формат : AVI
Формат/Информация : Audio Video Interleave
Размер файла : 1,09 Гбайт
Продолжительность : 1 ч. 25 м.
Общий поток : 1841 Кбит/сек
Программа кодирования : VirtualDubMod 1.5.10.3 | www.virtualdub-fr.org || (build 2550/release)
Библиотека кодирования : VirtualDubMod build 2550/release

Видео
Идентификатор : 0
Формат : MPEG-4 Visual
Профиль формата : Advanced Simple@L5
Параметр BVOP формата : 1
Параметр QPel формата : Нет
Параметр GMC формата : Без точки перехода
Параметр матрицы формата : Выборочная
Идентификатор кодека : XVID
Идентификатор кодека/Подсказка : XviD
Продолжительность : 1 ч. 25 м.
Битрейт : 1640 Кбит/сек
Ширина : 704 пикселя
Высота : 528 пикселей
Соотношение сторон : 4:3
Частота кадров : 25,000 кадров/сек
Цветовое пространство : YUV
Субдискретизация насыщенности : 4:2:0
Битовая глубина : 8 бит
Тип развёртки : Прогрессивная
Метод сжатия : С потерями
Бит/(Пиксели*Кадры) : 0.176
Размер потока : 997 Мбайт (89%)
Библиотека кодирования : XviD 73

Аудио
Идентификатор : 1
Формат : AC-3
Формат/Информация : Audio Coding 3
Расширение режима : CM (complete main)
Параметр Endianness формата : Big
Идентификатор кодека : 2000
Продолжительность : 1 ч. 25 м.
Вид битрейта : Постоянный
Битрейт : 192 Кбит/сек
Каналы : 2 канала
Расположение каналов : Front: L R
Частота : 48,0 КГц
Частота кадров : 31,250 кадров/сек (1536 spf)
Битовая глубина : 16 бит
Метод сжатия : С потерями
Размер потока : 117 Мбайт (10%)
Выравнивание : Разделение по промежуткам
Продолжительность промежутка : 40 мс. (1,00 видеокадр)
Время предзагрузки промежутка : 500 мс
pb.wtf



Скачать Урок истории через торрент http://s018.radikal.ru/i517/1701/58/d2ed8a59623d.png Скачать фильм Урок истории через торрент бесплантно в хорошем качестве Описание:1933 год. Георгий Димитров приезжает в Берлин, чтобы установить связи с находящимися здесь болгарскими коммунистами. Фашистские ... 5 10 1
Info! Золотая раздача, скачанное не засчитывается.
Торрент: Зарегистрирован [2017-01-27 08:57] · скачан: 4 раз
Статус: √ проверено
Размер: 1.09 GB
Как cкачать? Как скачать Урок истории через торрент | qTorrent

% Раздел Тема Автор DL S | L
Кино СССР [ 1.09 GB ] Урок истории [1956 СССР Болгария VHSRip-AVC от AVP Studio] AVP Studio Скачать
1 | 0
Кино СССР [ 745 MB ] Урок истории [1956 СССР Болгария VHSRip от AVP Studio] AVP Studio Скачать
1 | 0
Научно-популярные фильмы [ 557 MB ] Легенды Крыма. Уроки Крымской войны [2015 документальный военный история DVB Русский] кэп Скачать
1 | 0
Информационно-аналитические и общественно-политические передачи [ 473 MB ] Уроки Вьетнамской войны [2015 документальный военный история DVB Русский] кэп Скачать
1 | 0
Аниме [DVDrip, WEB-DLRip, HDrip] [ 3.16 GB ] Клинок Бессмертного / Blade of the Immortal [2008 аниме мультфильм история TVRip Любительский одноголосный] Gerbionka Скачать
1 | 0

28-11-2019 20:33  

Отключить всю рекламу на сайте

    Дорогой пользователь! Огромная просьба, поблагодарите релизера, оцените раздачу и оставьте свои комментарий, если Вы скачали Урок истории через торрент бесплатно! Внесите свою лепту в развитие PiratBit!
    Комментировать посты могут только пользователи прошедшие не сложную регистрацию
    Показать сообщения:    

    Урок истории через торрент
    Скачать бесплатно Урок истории
    Урок истории скачать торрент
    Урок истории смотреть онлайн
    Cкачать фильм Урок истории бесплатно
    Урок истории скачать торрент в хорошем качестве
    Урок истории смотреть онлайн бесплатно в хорошем качестве


    Вы не можете начинать темы
    Вы не можете отвечать на сообщения
    Вы не можете редактировать свои сообщения
    Вы не можете удалять свои сообщения
    Вы не можете голосовать в опросах
    Вы не можете прикреплять файлы к сообщениям
    Вы можете скачивать файлы