новый адрес пиратбит piratbit
Мега распродажа FORZA HORIZON 4 ULTIMATE+ВСЕ DLC+ОНЛАЙН всего за 499р. 349 руб. (супер цена). Внимание количество ограничено!!!

iTunes

1+1

iTunes

мы

iTunes

1

iTunes

Чернобыль

iTunes

Ральф против интернета

Лицензия

ПШазам

Лицензия

Игра престолов

Лицензия

30
pack

ВАЖНО

!!Акция!!

Alien_RageХит недели

RePack

Resident Evil 21

ИГРА 18+

pack

RePack

Metro:Exodus

!!Акция!!

Alien_Rage

RePack

fifa19

RePack

Assassins Creed: Odyssey

RePack

NEED FOR SPEED™ PAYBACK

3 сезон

9 сезон

Бесстыжие 9 сезон

Все сериалы

все сериалы на PB.wtf

RePack

FAR CRY 5
Ребята, катастрофически не хватает 1900р. для оплаты серверов за Октябрь (всвязи с блокировками трафик упал в 3 раза), 1-2р., выручайте.
  

Урок истории (Лев Арнштам, Христо Писков, Михаил Ромм) [1956, СССР, Болгария, драма, VHSRip от AVP Studio] pb.wtf

Урок истории через торрент pb.wtf

Размер: 745 MB | Добавлен: 2 года 9 мес. назад | Торрент скачан:5 раз
Скачать  

27-01-2017 08:58 Урок истории Скачать торрент  

Урок истории
Страна: СССР
Производство: Мосфильм, Киностудия БОЯНА

Жанр: драма
Год выпуска: 1956
Продолжительность: 01:25:01

Перевод: Не требуется
Cубтитры: нет
Оригинальная аудиодорожка: русский

Режиссер: Лев Арнштам, Христо Писков, Михаил Ромм

В ролях:
Стефан Савов, Цветана Арнаудова, Иван Тонев, Геннадий Юдин, Велта Лине, Борис Бурляев, Аполлон Ячницкий, Юрий Аверин, Э. Багаров, Петр Березов, Николай Волков (старший), Георгий Калоянчев, Янис Осис, Иван Соловьёв, Евгений Кузнецов, Андрей Файт, В. Яковлев, Константин Нассонов...
Об актёрах подробней

Описание:
1933 год. Георгий Димитров приезжает в Берлин, чтобы установить связи с находящимися здесь болгарскими коммунистами. Фашистские главари прилагают все усилия, чтобы сломить сопротивление коммунистов. Геринг замышляет провокацию: во время поджога рейхстага его человека должны поймать с билетом члена компартии. Рейхстаг в огне, провокатор Ван дер Люббе и депутат рейхстага Торглер арестованы. Начинаются массовые репрессии против коммунистов. В руки фашистского суда попадает и Димитров. Однако в зале суда рабочие, в числе которых Генрих Ланге, доказывают беспочвенность обвинительного процесса. Фашисты вынуждены оправдать Димитрова. Советское правительство предоставляет ему право политического убежища.

Источник: VHS
Качество видео: VHSRip
Формат видео: AVI

Видео: 640x480 (4:3), 25 fps, XviD ~ 1088 kbps avg, 0.142 bit/pixel
Аудио: 48 kHz, MP3 2.0, 128 kbps

Раздача от:
Общее
Полное имя : Urok.istorii.1956.VHSRip-745_[New-team]_by_AVP_Studio.avi
Формат : AVI
Формат/Информация : Audio Video Interleave
Размер файла : 745 Мбайт
Продолжительность : 1 ч. 25 м.
Общий поток : 1225 Кбит/сек
Программа кодирования : VirtualDubMod 1.5.10.3 | www.virtualdub-fr.org || (build 2550/release)
Библиотека кодирования : VirtualDubMod build 2550/release

Видео
Идентификатор : 0
Формат : MPEG-4 Visual
Профиль формата : Advanced Simple@L5
Параметр BVOP формата : 1
Параметр QPel формата : Нет
Параметр GMC формата : Без точки перехода
Параметр матрицы формата : Выборочная
Идентификатор кодека : XVID
Идентификатор кодека/Подсказка : XviD
Продолжительность : 1 ч. 25 м.
Битрейт : 1088 Кбит/сек
Ширина : 640 пикселей
Высота : 480 пикселей
Соотношение сторон : 4:3
Частота кадров : 25,000 кадров/сек
Цветовое пространство : YUV
Субдискретизация насыщенности : 4:2:0
Битовая глубина : 8 бит
Тип развёртки : Прогрессивная
Метод сжатия : С потерями
Бит/(Пиксели*Кадры) : 0.142
Размер потока : 661 Мбайт (89%)
Библиотека кодирования : XviD 73

Аудио
Идентификатор : 1
Формат : MPEG Audio
Версия формата : Version 1
Профиль формата : Layer 3
Идентификатор кодека : 55
Идентификатор кодека/Подсказка : MP3
Продолжительность : 1 ч. 25 м.
Вид битрейта : Постоянный
Битрейт : 128 Кбит/сек
Каналы : 2 канала
Частота : 48,0 КГц
Метод сжатия : С потерями
Размер потока : 77,8 Мбайт (10%)
Выравнивание : Соединение по промежуткам
Продолжительность промежутка : 40 мс. (1,00 видеокадр)
Время предзагрузки промежутка : 504 мс.
Библиотека кодирования : LAME3.99r
Настройки программы : -m s -V 4 -q 2 -lowpass 17 -b 128
pb.wtf



Скачать Урок истории через торрент http://s018.radikal.ru/i517/1701/58/d2ed8a59623d.png Скачать фильм Урок истории через торрент бесплантно в хорошем качестве Описание:1933 год. Георгий Димитров приезжает в Берлин, чтобы установить связи с находящимися здесь болгарскими коммунистами. Фашистские ... 5 10 1
Info! Золотая раздача, скачанное не засчитывается.
Торрент: Зарегистрирован [2017-01-27 08:58] · скачан: 5 раз
Статус: √ проверено
Размер: 745 MB
Как cкачать? Как скачать Урок истории через торрент | qTorrent

% Раздел Тема Автор DL S | L
Кино СССР [ 1.09 GB ] Урок истории [1956 СССР Болгария VHSRip-AVC от AVP Studio] AVP Studio Скачать
1 | 0
Кино СССР [ 1.09 GB ] Урок истории [1956 СССР Болгария VHSRip от AVP Studio] AVP Studio Скачать
1 | 0
Научно-популярные фильмы [ 557 MB ] Легенды Крыма. Уроки Крымской войны [2015 документальный военный история DVB Русский] кэп Скачать
1 | 0
Информационно-аналитические и общественно-политические передачи [ 473 MB ] Уроки Вьетнамской войны [2015 документальный военный история DVB Русский] кэп Скачать
1 | 0
Аниме [DVDrip, WEB-DLRip, HDrip] [ 3.16 GB ] Клинок Бессмертного / Blade of the Immortal [2008 аниме мультфильм история TVRip Любительский одноголосный] Gerbionka Скачать
1 | 0


>> Регистрируемся здесь <<






Отзывы и комментарии о схеме читаем и пишем здесь: ---> Отзывы и комментарии о схеме

Новые благодарочки в телеграм довольных пользователей:
скриншот   скриншот   скриншот   скриншот   скриншот
    Дорогой пользователь! Огромная просьба, поблагодарите релизера, оцените раздачу и оставьте свои комментарий, если Вы скачали Урок истории через торрент бесплатно! Внесите свою лепту в развитие PiratBit!
    Комментировать посты могут только пользователи прошедшие не сложную регистрацию
    Показать сообщения:    

    Урок истории через торрент
    Скачать бесплатно Урок истории
    Урок истории скачать торрент
    Урок истории смотреть онлайн
    Cкачать фильм Урок истории бесплатно
    Урок истории скачать торрент в хорошем качестве
    Урок истории смотреть онлайн бесплатно в хорошем качестве


    Вы не можете начинать темы
    Вы не можете отвечать на сообщения
    Вы не можете редактировать свои сообщения
    Вы не можете удалять свои сообщения
    Вы не можете голосовать в опросах
    Вы не можете прикреплять файлы к сообщениям
    Вы можете скачивать файлы