1 сезон

3 сезон

iTunes

1

Line

MVO

iTunes

13

1 сезон

RePack

30

Deluxe

pack

Лицензия

ВАЖНО

ИГРА 18+

pack

RePack

MK11

RePack

jed

RePack

fifa19

RePack

RDR2

RePack

NEED FOR SPEED™ PAYBACK

4 сезон

9 сезон

Бесстыжие 9 сезон

Все сериалы

все сериалы на PB.wtf

RePack

FAR CRY 5

Anonymous, доброй ночи, мы катастрофически не успеваем собрать деньги на оплату серверов, помогите нам пожалуйста 5,10,15р., для нас важна любая помощь . В качестве благодарности мы отключим Вам всю рекламу на сайте (укажите свой ник в строку Ваше имя)!

×
  
Magnet ссылка

Джек Ричер: Дилогия / Jack Reacher: Dilogy (Кристофер МакКуорри, Эдвард Цвик) [2012-2016 г., Боевик, триллер, криминал, детектив, экранизация, BDRip, Дубляж] [Лицензия] R.G.Resident pb.wtf

Джек Ричер: Дилогия через торрент pb.wtf

Размер: 4.36 GB | Добавлен: 4 года 6 мес. назад | Торрент скачан:285 раз
Скачать  

27-01-2017 19:18 Джек Ричер: Дилогия Скачать торрент  



Название: Джек Ричер: Дилогия
Оригинальное название: Jack Reacher: Dilogy

Год выхода: 2012, 2016 г.,
Жанр: Боевик, триллер, криминал, детектив, экранизация
Продолжительность: 02:10:24 | 01:58:08
Название: Джек Ричер
Оригинальное название: Jack Reacher
Год выпуска: 2012
Жанр: Боевик, триллер, криминал, детектив, экранизация
Выпущено: США, Mutual Film Company, Paramount Pictures, Skydance Productions
Режиссер: Кристофер МакКуорри
В ролях: Том Круз, Розамунд Пайк, Ричард Дженкинс, Вернер Херцог, Дэвид Ойелоуо, Роберт Дювалл, Джай Кортни, Владимир Сизов, Джозеф Сикора, Майкл Рэймонд-Джеймс

О фильме: В центре города застрелены пять случайных прохожих. Полиция идентифицирует и арестовывает преступника. Однако обвиняемый утверждает, что невиновен и просит найти Джека Ричера. Бывший спец-агент Джек Ричер намеревается как можно быстрее разобраться в этом деле. Фильм «Джек Ричер» (Jack Reacher) – экранизация детектива «Джек Ричер 9: Выстрел» (One Shot) писателя Ли Чайлда, вышедшем в серии романов о расследованиях бывшего военного Джека Ричера.

Качество: BDRip
Видео: 720x304 (2.37:1), 23.976 fps, XviD build 65 ~1939 kbps avg, 0.37 bit/pixel
Аудио: 48 kHz, AC3 Dolby Digital, 3/2 (L,C,R,l,r) + LFE ch, ~448.00 kbps avg
Продолжительность: 02:10:24
Перевод: Дублированный [Лицензия]

Релиз от: ruslanishe

Complete name Dzhek.Richer.XviD.2012-2016.BDRip.R.G.Resident\001.avi
Format : AVI
Format/Info : Audio Video Interleave
Format profile : OpenDML
File size : 2.18 GiB
Duration : 2h 10mn
Overall bit rate : 2 395 Kbps
Director : ruslanishe
Writing application : VirtualDubMod 1.5.10.3 | www.virtualdub-fr.org || (build 2550/release)
Copyright : R.G.Resident

Video
ID : 0
Format : MPEG-4 Visual
Format profile : Advanced Simple@L5
Format settings, BVOP : 2
Format settings, QPel : No
Format settings, GMC : No warppoints
Format settings, Matrix : Custom
Codec ID : XVID
Codec ID/Hint : XviD
Duration : 2h 10mn
Bit rate : 1 935 Kbps
Width : 720 pixels
Height : 304 pixels
Display aspect ratio : 2.35:1
Frame rate : 23.976 fps
Color space : YUV
Chroma subsampling : 4:2:0
Bit depth : 8 bits
Scan type : Progressive
Compression mode : Lossy
Bits/(Pixel*Frame) : 0.369
Stream size : 1.76 GiB (81%)
Writing library : XviD 65

Audio
ID : 1
Format : AC-3
Format/Info : Audio Coding 3
Mode extension : CM (complete main)
Format settings, Endianness : Big
Codec ID : 2000
Duration : 2h 10mn
Bit rate mode : Constant
Bit rate : 448 Kbps
Channel(s) : 6 channels
Channel positions : Front: L C R, Side: L R, LFE
Sampling rate : 48.0 KHz
Bit depth : 16 bits
Compression mode : Lossy
Stream size : 418 MiB (19%)
Alignment : Split accross interleaves
Interleave, duration : 42 ms (1.00 video frame)
Interleave, preload duration : 500 ms


Название: Джек Ричер 2: Никогда не возвращайся
Оригинальное название: Jack Reacher: Never Go Back
Год выпуска: 2016
Жанр: Боевик, триллер, криминал, детектив, экранизация
Выпущено: Китай, США, Huahua Film & Media Culture, Paramount Pictures
Режиссер: Эдвард Цвик
В ролях: Том Круз, Коби Смолдерс, Роберт Неппер, Даника Ярош, Нинджа Н. Деву, Элдис Ходж, Холт МакКэллани, Мэдалин Хорчер, Чейз Савой, Сью-Линн Ансари

О фильме: Джек Ричер решил взять передышку и вернуться в родное 110-е подразделение военной полиции, где он когда-то был начальником. Тем более у него есть дополнительный интерес — действующий командир части, майор Сьюзан Тернер. Именно майор Тернер выручила его, сообщая своим волнующим голосом по телефону ценную информацию, которая помогла Джеку Ричеру выпутаться из серьезных неприятностей. И вот теперь у него есть возможность поблагодарить коллегу лично. Вот только оказавшись в расположении части, Ричер узнает, что буквально на днях Сьюзан арестовали за получение крупной взятки. А его самого обвинили в убийстве шестнадцатилетней давности, о событиях которого он ничего не помнит. Странное совпадение или чей-то злой умысел? Возвращение в место, где когда-то было хорошо и относительно спокойно, оборачивается новыми неприятностями и приключениями.

Качество: BDRip
Видео: 720x304 (2.37:1), 23.976 fps, XviD build 65 ~2187 kbps avg, 0.42 bit/pixel
Аудио: 48 kHz, AC3 Dolby Digital, 3/2 (L,C,R,l,r) + LFE ch, ~448.00 kbps avg
Продолжительность: 01:58:08
Перевод: Дублированный [Лицензия]

Релиз от: ruslanishe

Complete name
Dzhek.Richer.XviD.2012-2016.BDRip.R.G.Resident\002.avi
Format : AVI
Format/Info : Audio Video Interleave
Format profile : OpenDML
File size : 2.18 GiB
Duration : 1h 58mn
Overall bit rate : 2 643 Kbps
Director : ruslanishe
Writing application : VirtualDubMod 1.5.10.3 | www.virtualdub-fr.org || (build 2550/release)
Copyright : R.G.Resident

Video
ID : 0
Format : MPEG-4 Visual
Format profile : Advanced Simple@L5
Format settings, BVOP : 2
Format settings, QPel : No
Format settings, GMC : No warppoints
Format settings, Matrix : Custom
Codec ID : XVID
Codec ID/Hint : XviD
Duration : 1h 58mn
Bit rate : 2 183 Kbps
Width : 720 pixels
Height : 304 pixels
Display aspect ratio : 2.35:1
Frame rate : 23.976 fps
Color space : YUV
Chroma subsampling : 4:2:0
Bit depth : 8 bits
Scan type : Progressive
Compression mode : Lossy
Bits/(Pixel*Frame) : 0.416
Stream size : 1.80 GiB (83%)
Writing library : XviD 65

Audio
ID : 1
Format : AC-3
Format/Info : Audio Coding 3
Mode extension : CM (complete main)
Format settings, Endianness : Big
Codec ID : 2000
Duration : 1h 58mn
Bit rate mode : Constant
Bit rate : 448 Kbps
Channel(s) : 6 channels
Channel positions : Front: L C R, Side: L R, LFE
Sampling rate : 48.0 KHz
Bit depth : 16 bits
Compression mode : Lossy
Stream size : 379 MiB (17%)
Alignment : Split accross interleaves
Interleave, duration : 42 ms (1.00 video frame)
Interleave, preload duration : 500 ms

pb.wtf



Скачать Джек Ричер: Дилогия через торрент http://s019.radikal.ru/i616/1701/41/ee90a058e872.jpg Скачать фильм Джек Ричер: Дилогия через торрент бесплантно в хорошем качестве О фильме: В центре города застрелены пять случайных прохожих. Полиция идентифицирует и арестовывает преступника. Однако обвиняемый ... 9.6 10 23
Info! Золотая раздача, скачанное не засчитывается.
Торрент: Зарегистрирован [2017-01-28 18:37] · скачан: 285 раз
Статус: √ проверено
Размер: 4.36 GB
Как cкачать? Как скачать Джек Ричер: Дилогия через торрент | UTorrent



Последний раз редактировалось: ruslanishe (2017-01-28 19:45), всего редактировалось 10 раз(а)

28-11-2019 20:33  

Отключить всю рекламу на сайте

28-01-2017 14:44 Джек Ричер: Дилогия Скачать торрент  

Замена на BDRippb.wtf



02-07-2020 09:04 Джек Ричер: Дилогия Скачать торрент  

дайте скоростиpb.wtf



11-07-2021 16:15 Джек Ричер: Дилогия Скачать торрент  

раздачи нет от слова совсемpb.wtf



    Дорогой пользователь! Огромная просьба, поблагодарите релизера, оцените раздачу и оставьте свои комментарий, если Вы скачали Джек Ричер: Дилогия через торрент бесплатно! Внесите свою лепту в развитие PiratBit!
    Комментировать посты могут только пользователи прошедшие не сложную регистрацию
    Показать сообщения:    

    Джек Ричер: Дилогия через торрент
    Скачать бесплатно Джек Ричер: Дилогия
    Джек Ричер: Дилогия скачать торрент
    Джек Ричер: Дилогия смотреть онлайн
    Cкачать фильм Джек Ричер: Дилогия бесплатно
    Джек Ричер: Дилогия скачать торрент в хорошем качестве
    Джек Ричер: Дилогия смотреть онлайн бесплатно в хорошем качестве


    Вы не можете начинать темы
    Вы не можете отвечать на сообщения
    Вы не можете редактировать свои сообщения
    Вы не можете удалять свои сообщения
    Вы не можете голосовать в опросах
    Вы не можете прикреплять файлы к сообщениям
    Вы можете скачивать файлы