Ссылка на приватное зеркало всего за 1$. Внимание количество ограничено!!!

OK

1+1

iTunes

мы

OK

1

WEB-DLRip

Джокер

Пифагор

Ведьмак / The Witcher сериал

Лицензия

ПШазам

ОК

Оно 2

iTunes

30
pack

Вам бонус

ВАЖНО

!!Акция!!

Alien_RageХит недели

RePack

Resident Evil 21

ИГРА 18+

pack

RePack

jed

RePack

fifa19

RePack

Assassins Creed: Odyssey

RePack

NEED FOR SPEED™ PAYBACK

4 сезон

9 сезон

Бесстыжие 9 сезон

Все сериалы

все сериалы на PB.wtf

RePack

FAR CRY 5
  

Любовь как яд / Un poison violent / Love like poison (Кэйтель Куиливье / Katell Quillévéré) [2010, Франция, Драма, DVDRip] VO (Один 777) + Sub (Rus) + Original (Fre) pb.wtf

Любовь как яд через торрент pb.wtf

Размер: 827 MB | Добавлен: 2 года 11 мес. назад | Торрент скачан:1 раз
Скачать  

27-01-2017 20:12 Любовь как яд Скачать торрент  

Любовь как яд / Un poison violent / Love like poison

Год выпуска: 2010
Страна: Франция / Angoa-Agicoa, arte France Cinéma, Banque Postale Image 3 La, Canal+ [fr]
Жанр: Драма
Продолжительность: 01:22:00
Перевод: Любительский (одноголосый закадровый) Один 777
Оригинальная аудиодорожка: французский (отдельно)
Cубтитры: русские (by Freken)
Формат субтитров: softsub (SRT)

Режиссер: Кэйтель Куиливье / Katell Quillévéré

В ролях: Клара Огард, Лио, Мишель Галабрю, Стефано Кассетти, Тьерри Нёвик,Филипп Дюкло, Франсуаза Наварро, Франсуа Бернард...

Описание: Анна возвращается на каникулы домой, но там её ожидают неприятные перемены - из семьи ушел отец. Верная христианским заветам мама теперь с нетерпением ждет конфирмации дочери, но ту - как и любую другую четырнадцатилетнюю девушку - гораздо больше религиозного чувства волнует размер собственной груди и форма коленок.


Сэмпл: http://sendfile.su/1302889


Качество видео: DVDRip
Формат видео: AVI
Видео кодек: XviD
Аудио кодек: МР3
Видео: 640x352 (1.82:1), 25 fps, XviD build 73 ~1143 kbps avg, 0.20 bit/pixel
Аудио 1: 48 kHz, MPEG Layer 3, 2 ch, ~128.00 kbps avg VO (Один 777)
Аудио 2: 48 kHz, MPEG Layer 3, 2 ch, ~128.00 kbps avg Original (Fre)(отдельно)
Общее
Полное имя : F:\Ljubov'.kak.jad.2010.DVDRip.740.[Один 777]\Ljubov'.kak.jad.2010.DVDRip.740.[Один 777].avi
Формат : AVI
Формат/Информация : Audio Video Interleave
Размер файла : 752 Мбайт
Продолжительность : 1 ч. 22 м.
Общий поток : 1282 Кбит/сек
Программа кодирования : VirtualDubMod 1.5.10.3 | www.virtualdub-fr.org || (build 2550/release)
Библиотека кодирования : VirtualDubMod build 2550/release

Видео
Идентификатор : 0
Формат : MPEG-4 Visual
Профиль формата : Advanced Simple@L5
Параметр BVOP формата : 1
Параметр QPel формата : Нет
Параметр GMC формата : Без точки перехода
Параметр матрицы формата : Default (H.263)
Идентификатор кодека : XVID
Идентификатор кодека/Подсказка : XviD
Продолжительность : 1 ч. 22 м.
Битрейт : 1144 Кбит/сек
Ширина : 640 пикселей
Высота : 352 пикселя
Соотношение сторон : 16:9
Частота кадров : 25,000 кадров/сек
Цветовое пространство : YUV
Субдискретизация насыщенности : 4:2:0
Битовая глубина : 8 бит
Тип развёртки : Прогрессивная
Метод сжатия : С потерями
Бит/(Пиксели*Кадры) : 0.203
Размер потока : 671 Мбайт (89%)
Библиотека кодирования : XviD 73

Аудио
Идентификатор : 1
Формат : MPEG Audio
Версия формата : Version 1
Профиль формата : Layer 3
Идентификатор кодека : 55
Идентификатор кодека/Подсказка : MP3
Продолжительность : 1 ч. 22 м.
Вид битрейта : Постоянный
Битрейт : 128 Кбит/сек
Каналы : 2 канала
Частота : 48,0 КГц
Метод сжатия : С потерями
Размер потока : 75,1 Мбайт (10%)
Выравнивание : Соединение по промежуткам
Продолжительность промежутка : 40 мс. (1,00 видеокадр)
Время предзагрузки промежутка : 504 мс.
Библиотека кодирования : LAME3.99r
Настройки программы : -m s -V 4 -q 2 -lowpass 17 -b 128
[/spoil er]pb.wtf



Скачать Любовь как яд через торрент http://i3.imageban.ru/out/2017/01/26/196db03061bd9cd88b5dd16d02d9dce2.jpg Скачать фильм Любовь как яд через торрент бесплантно в хорошем качестве Описание: Анна возвращается на каникулы домой, но там её ожидают неприятные перемены - из семьи ушел отец. Верная христианским заветам мама ... 10 10 2
Info! Золотая раздача, скачанное не засчитывается.
Торрент: Зарегистрирован [2017-01-27 20:12] · скачан: 1 раз
Статус: √ проверено
Размер: 827 MB
Как cкачать? Как скачать Любовь как яд через торрент | qTorrent

% Раздел Тема Автор DL S | L
Фильмы 2010 [ 1.46 GB ] Любовь как яд / Un poison violent / Love like poison [2010 DVDRip] VO + Sub + Original Один 777 Скачать
1 | 0

28-11-2019 20:33  

Отключить всю рекламу на сайте

    Дорогой пользователь! Огромная просьба, поблагодарите релизера, оцените раздачу и оставьте свои комментарий, если Вы скачали Любовь как яд через торрент бесплатно! Внесите свою лепту в развитие PiratBit!
    Комментировать посты могут только пользователи прошедшие не сложную регистрацию
    Показать сообщения:    

    Любовь как яд через торрент
    Скачать бесплатно Любовь как яд
    Любовь как яд скачать торрент
    Любовь как яд смотреть онлайн
    Cкачать фильм Любовь как яд бесплатно
    Любовь как яд скачать торрент в хорошем качестве
    Любовь как яд смотреть онлайн бесплатно в хорошем качестве


    Вы не можете начинать темы
    Вы не можете отвечать на сообщения
    Вы не можете редактировать свои сообщения
    Вы не можете удалять свои сообщения
    Вы не можете голосовать в опросах
    Вы не можете прикреплять файлы к сообщениям
    Вы можете скачивать файлы