Ссылка на приватное зеркало нашего сайта всего за 1$. Внимание количество ограничено!!!

2 сезон

iTunes

1 сезон

1

2 сезон

2 сезон

iTunes

1 сезон

RePack

30

Новинка

ВАЖНО

ИГРА 18+

pack

RePack

MK11
pack

Забери бонус

RePack

jed

!!Акция!!

Alien_Rage

RePack

fifa19

RePack

Assassins Creed: Odyssey

RePack

NEED FOR SPEED™ PAYBACK

4 сезон

9 сезон

Бесстыжие 9 сезон

Все сериалы

все сериалы на PB.wtf

RePack

FAR CRY 5
  

Баскетс / Олух / Baskets / 2 сезон / 01-10 серии (10) (Джонатан Крисел) [2017, драма, комедия, WEB-DL 720p] [DVO] (Ozz) pb.wtf

Баскетс через торрент pb.wtf

Размер: 7.78 GB | Добавлен: 2 года 8 мес. назад | Торрент скачан:4 раза
Скачать  

27-01-2017 20:43 Баскетс Скачать торрент  

Баскетс / Олух / Baskets - Second Season
Год выхода: 2017
Страна: США
Жанр: драма, комедия
Продолжительность: 1x~ 00:25:00
Перевод: Профессиональный (двухголосый закадровый) Ozz


Режиссер: Джонатан Крисел

В ролях: Зак Галифианакис, Малия Пайлс, Том Проктер, Гарри Клеммонс, Джейсон Клеммонс, Крис МакЛафлин, Лиана Мендоса, Брент Уолкер, Sabina Sciubba, Майлз Андерсон и др.

Описание: Новый проект Зака Галифианакиса и Луи Си Кея.
История Чипа Баскетса - чудаковатого калифорнийца, мечтающего стать профессиональным клоуном. Поступление в престижную парижскую школу, где учат этому ремеслу, он проваливает и устраивается работать клоуном на родео.


| Sample Роли озвучивают: |Алексей Серёгин и Ирина Воронова|
Автор перевода: |Trotteville|
Подготовлено: Ozz

Качество: WEB-DL 720p
Формат: MKV
Видео кодек: x264
Аудио кодек: AC3
Видео: AVC, 1280x720 (16:9), 23.976 fps, ~4000 kbps avg, 0.177 bit/pixel
Аудио #1: Russian 48 KHz, AC3, 6 channels, 384 Kbps |Ozz|
Аудио #2: English 48 KHz, AC3, 6 channels, 384 Kbps
Субтитры: Russian (Trotteville) - (srt)
Реклама: Нет
Общее
Уникальный идентификатор                 : 228919027888689013327698856913014914350 (0xAC383379005967558D98FADDD0F07D2E)
Полное имя                               : H:\Baskets.S02.720p.WEB-DL.Rus.Eng.Ozz\Baskets.S02E01.720p.WEB-DL.Rus.Eng.Ozz.mkv
Формат                                   : Matroska
Версия формата                           : Version 4 / Version 2
Размер файла                             : 809 Мбайт
Продолжительность                        : 23 м.
Общий поток                              : 4766 Кбит/сек
Дата кодирования                         : UTC 2017-01-26 12:45:59
Программа кодирования                    : mkvmerge v6.3.0 ('You can't stop me!') built on Jun 28 2013 20:09:41
Библиотека кодирования                   : libebml v1.3.0 + libmatroska v1.4.0
Видео
Идентификатор                            : 1
Формат                                   : AVC
Формат/Информация                        : Advanced Video Codec
Профиль формата                          : High@L3.1
Параметр CABAC формата                   : Нет
Параметр ReFrames формата                : 2 кадра
Идентификатор кодека                     : V_MPEG4/ISO/AVC
Продолжительность                        : 23 м.
Битрейт                                  : 3903 Кбит/сек
Ширина                                   : 1280 пикселей
Высота                                   : 720 пикселей
Соотношение сторон                       : 16:9
Режим частоты кадров                     : Постоянный
Частота кадров                           : 23,976 кадра/сек
Цветовое пространство                    : YUV
Субдискретизация насыщенности            : 4:2:0
Битовая глубина                          : 8 бит
Тип развёртки                            : Прогрессивная
Бит/(Пиксели*Кадры)                      : 0.177
Размер потока                            : 663 Мбайт (82%)
Язык                                     : English
Default                                  : Да
Forced                                   : Нет
Основные цвета                           : BT.709
Характеристики трансфера                 : BT.709
Коэффициенты матрицы                     : BT.709
Аудио #1
Идентификатор                            : 2
Формат                                   : AC-3
Формат/Информация                        : Audio Coding 3
Расширение режима                        : CM (complete main)
Параметр Endianness формата              : Big
Идентификатор кодека                     : A_AC3
Продолжительность                        : 23 м.
Вид битрейта                             : Постоянный
Битрейт                                  : 384 Кбит/сек
Каналы                                   : 6 каналов
Расположение каналов                     : Front: L C R, Side: L R, LFE
Частота                                  : 48,0 КГц
Битовая глубина                          : 16 бит
Метод сжатия                             : С потерями
Размер потока                            : 65,2 Мбайт (8%)
Заголовок                                : DVO Ozz-tv
Язык                                     : Russian
Default                                  : Да
Forced                                   : Нет
Аудио #2
Идентификатор                            : 3
Формат                                   : AC-3
Формат/Информация                        : Audio Coding 3
Расширение режима                        : CM (complete main)
Параметр Endianness формата              : Big
Идентификатор кодека                     : A_AC3
Продолжительность                        : 23 м.
Вид битрейта                             : Постоянный
Битрейт                                  : 384 Кбит/сек
Каналы                                   : 6 каналов
Расположение каналов                     : Front: L C R, Side: L R, LFE
Частота                                  : 48,0 КГц
Битовая глубина                          : 16 бит
Метод сжатия                             : С потерями
Задержка видео                           : 29 мс.
Размер потока                            : 65,2 Мбайт (8%)
Язык                                     : English
Default                                  : Нет
Forced                                   : Нет
Текст #1
Идентификатор                            : 4
Формат                                   : UTF-8
Идентификатор кодека                     : S_TEXT/UTF8
Идентификатор кодека/Информация          : UTF-8 Plain Text
Заголовок                                : Trotteville
Язык                                     : Russian
Default                                  : Нет
Forced                                   : Нет
Текст #2
Идентификатор                            : 5
Формат                                   : UTF-8
Идентификатор кодека                     : S_TEXT/UTF8
Идентификатор кодека/Информация          : UTF-8 Plain Text
Язык                                     : English
Default                                  : Нет
Forced                                   : Нет
скриншот  скриншот  скриншот  
pb.wtf



Скачать Баскетс через торрент http://i91.fastpic.ru/big/2017/0127/0c/04d73003e00dae6d18706297d3508a0c.jpg Скачать фильм Баскетс через торрент бесплантно в хорошем качестве Описание: Новый проект Зака Галифианакиса и Луи Си Кея.История Чипа Баскетса - чудаковатого калифорнийца, мечтающего стать профессиональным ... 7 10 6
Торрент: Зарегистрирован [2018-03-21 13:21] · скачан: 4 раз
Статус: √ проверено
Размер: 7.78 GB
Как cкачать? Как скачать Баскетс через торрент | qTorrent

% Раздел Тема Автор DL S | L
Зарубежные сериалы [ 2.93 GB ] Баскетс / Олух / Baskets / 2 сезон / 01-10 серии [2017 WEB-DLRip] [MVO] killermax2013 Скачать
1 | 0


Последний раз редактировалось: killermax2013 (2018-03-21 13:20), всего редактировалось 8 раз(а)

28-11-2019 20:33  

Отключить всю рекламу на сайте

28-01-2017 06:31 Баскетс Скачать торрент  

ну наконец то дождался этот сериал с Галифианакисом. Спасибо за релиз.pb.wtf



28-01-2017 10:23 Баскетс Скачать торрент  

Deviato, спасибо за золото pb.wtf



02-02-2017 17:40 Баскетс Скачать торрент  

+2pb.wtf



04-02-2017 14:20 Баскетс Скачать торрент  

+3pb.wtf



24-02-2017 15:32 Баскетс Скачать торрент  

+4-5pb.wtf



03-03-2017 11:31 Баскетс Скачать торрент  

+6pb.wtf



05-03-2017 06:40 Баскетс Скачать торрент  

+7pb.wtf



17-03-2017 17:34 Баскетс Скачать торрент  

+8pb.wtf



18-03-2017 19:31 Баскетс Скачать торрент  

+9pb.wtf



    Дорогой пользователь! Огромная просьба, поблагодарите релизера, оцените раздачу и оставьте свои комментарий, если Вы скачали Баскетс через торрент бесплатно! Внесите свою лепту в развитие PiratBit!
    Комментировать посты могут только пользователи прошедшие не сложную регистрацию
    Показать сообщения:    

    Баскетс через торрент
    Скачать бесплатно Баскетс
    Баскетс скачать торрент
    Баскетс смотреть онлайн
    Cкачать фильм Баскетс бесплатно
    Баскетс скачать торрент в хорошем качестве
    Баскетс смотреть онлайн бесплатно в хорошем качестве


    Вы не можете начинать темы
    Вы не можете отвечать на сообщения
    Вы не можете редактировать свои сообщения
    Вы не можете удалять свои сообщения
    Вы не можете голосовать в опросах
    Вы не можете прикреплять файлы к сообщениям
    Вы можете скачивать файлы