Ссылка на приватное зеркало нашего сайта всего за 1$. Внимание количество ограничено!!!

2 сезон

iTunes

1 сезон

1

2 сезон

2 сезон

iTunes

1 сезон

RePack

30

Ultimate

ВАЖНО

ИГРА 18+

pack

RePack

MK11
pack

Забери бонус

RePack

jed

!!Акция!!

Alien_Rage

RePack

fifa19

RePack

Assassins Creed: Odyssey

RePack

NEED FOR SPEED™ PAYBACK

4 сезон

9 сезон

Бесстыжие 9 сезон

Все сериалы

все сериалы на PB.wtf

RePack

FAR CRY 5
  

Табу / Taboo / Сезон: 1 / Серии: 1-8 из 8 (Андерс Энгстрем, Кристоффер Нюхольм) [2017, Драма, WEB-DL 1080p] 4x [MVO] (LostFilm, NewStudio, Jaskier, AlexFilm) pb.wtf

Табу через торрент pb.wtf

Раздают: 2 [ 0 KB/s ]
Размер: 22.53 GB | Добавлен: 1 год 10 мес. назад | Торрент скачан:112 раз
Скачать  

27-01-2017 20:55 Табу Скачать торрент  


Табу / Taboo

«Тайны, которые, на самом деле убивают.»
Год выпуска: 2017
Страна: США | Великобритания
Жанр: драма
Продолжительность: ~00:55:00
Перевод#1: Профессиональный (многоголосый закадровый) | LostFilm
Перевод#2: Профессиональный (многоголосый закадровый) | NewStudio
Перевод#3: Профессиональный (многоголосый закадровый) | Jaskier
Перевод#4: Профессиональный (многоголосый закадровый) | AlexFilm

Режиссер: Андерс Энгстрем, Кристоффер Нюхольм

В ролях: Том Харди, Лео Билл, Уна Чаплин, Ричард Диксон, Дэвид Хейман, Майкл Келли, Дэнни Лигаири, Джонатан Прайс, Рой Торн, Скрубиус Пип

Описание: Считающийся погибшим, авантюрист и искатель приключений Джеймс Кезиах Делейни вновь в 1814 году, после 10 лет путешествий в Африке, появляется в Лондоне, стремясь отомстить за смерть своего отца. Делейни возвращается, чтобы обнаружить, что ему было оставлено отцом таинственное наследство и строит свою собственную корабельную империю в начале 1800-х годов, играя в опасную игру между двумя воюющими странами - Англией и Америкой...


Релиз -- sergiy_psp

Качество видео: WEB-DL 1080p
Формат: MKV
Кодек: H.264 @ AC3
Видео: 1916x1076 at 23.976 fps, MPEG-4 AVC, ~5000 kbps avg, 0.101 bit/pixel
Аудио Rus: 48 kHz, AC3, 3/2 (L,C,R,l,r) + LFE ch, ~384.00 kbps avg kbps avg |Многоголосый закадровый, LostFilm|
Аудио Rus: 48 kHz, AC3, 3/2 (L,C,R,l,r) + LFE ch, ~384.00 kbps avg kbps avg |Многоголосый закадровый, NewStudio|
Аудио Rus: 48 kHz, AC3, 3/2 (L,C,R,l,r) + LFE ch, ~384.00 kbps avg kbps avg |Многоголосый закадровый, Jaskier|
Аудио Rus: 48 kHz, AC3, 3/2 (L,C,R,l,r) + LFE ch, ~384.00 kbps avg kbps avg |Многоголосый закадровый, AlexFilm|
Аудио Eng: 48 kHz, AC3, 3/2 (L,C,R,l,r) + LFE ch, ~384.00 kbps avg
Cубтитры: Русские (надписи)
Видео
Идентификатор                            : 1
Формат                                   : AVC
Формат/Информация                        : Advanced Video Codec
Профиль формата                          : High@L4
Параметр CABAC формата                   : Да
Параметр ReFrames формата                : 4 кадра
Идентификатор кодека                     : V_MPEG4/ISO/AVC
Продолжительность                        : 57 м. 6 с.
Битрейт                                  : 5212 Кбит/сек
Ширина                                   : 1916 пикселей
Высота                                   : 1076 пикселей
Соотношение сторон                       : 16:9
Режим частоты кадров                     : Постоянный
Частота кадров                           : 25,000 кадров/сек
Цветовое пространство                    : YUV
Субдискретизация насыщенности            : 4:2:0
Битовая глубина                          : 8 бит
Тип развёртки                            : Прогрессивная
Бит/(Пиксели*Кадры)                      : 0.101
Размер потока                            : 2,08 Гбайт (73%)
Заголовок                                : Taboo.S01E02.1080p.WEB-DL.4xRus.Eng.sergiy_psp
Язык                                     : English
Default                                  : Да
Forced                                   : Нет
Цветовой диапазон                        : Limited
Основные цвета                           : BT.709
Характеристики трансфера                 : BT.709
Коэффициенты матрицы                     : BT.709
Аудио #1
Идентификатор                            : 2
Формат                                   : AC-3
Формат/Информация                        : Audio Coding 3
Расширение режима                        : CM (complete main)
Параметр Endianness формата              : Big
Идентификатор кодека                     : A_AC3
Продолжительность                        : 57 м. 6 с.
Вид битрейта                             : Постоянный
Битрейт                                  : 384 Кбит/сек
Каналы                                   : 6 каналов
Расположение каналов                     : Front: L C R, Side: L R, LFE
Частота                                  : 48,0 КГц
Частота кадров                           : 31,250 кадров/сек (1536 spf)
Битовая глубина                          : 16 бит
Метод сжатия                             : С потерями
Размер потока                            : 157 Мбайт (5%)
Заголовок                                : Lostfilm 5.1
Язык                                     : Russian
Default                                  : Да
Forced                                   : Нет
Аудио #2
Идентификатор                            : 3
Формат                                   : AC-3
Формат/Информация                        : Audio Coding 3
Расширение режима                        : CM (complete main)
Параметр Endianness формата              : Big
Идентификатор кодека                     : A_AC3
Продолжительность                        : 57 м. 6 с.
Вид битрейта                             : Постоянный
Битрейт                                  : 384 Кбит/сек
Каналы                                   : 6 каналов
Расположение каналов                     : Front: L C R, Side: L R, LFE
Частота                                  : 48,0 КГц
Частота кадров                           : 31,250 кадров/сек (1536 spf)
Битовая глубина                          : 16 бит
Метод сжатия                             : С потерями
Размер потока                            : 157 Мбайт (5%)
Заголовок                                : Newstudio 5.1
Язык                                     : Russian
Default                                  : Нет
Forced                                   : Нет
Аудио #3
Идентификатор                            : 4
Формат                                   : AC-3
Формат/Информация                        : Audio Coding 3
Расширение режима                        : CM (complete main)
Параметр Endianness формата              : Big
Идентификатор кодека                     : A_AC3
Продолжительность                        : 57 м. 6 с.
Вид битрейта                             : Постоянный
Битрейт                                  : 384 Кбит/сек
Каналы                                   : 6 каналов
Расположение каналов                     : Front: L C R, Side: L R, LFE
Частота                                  : 48,0 КГц
Частота кадров                           : 31,250 кадров/сек (1536 spf)
Битовая глубина                          : 16 бит
Метод сжатия                             : С потерями
Размер потока                            : 157 Мбайт (5%)
Заголовок                                : Jaskier 5.1
Язык                                     : Russian
Default                                  : Нет
Forced                                   : Нет
Аудио #4
Идентификатор                            : 5
Формат                                   : AC-3
Формат/Информация                        : Audio Coding 3
Расширение режима                        : CM (complete main)
Параметр Endianness формата              : Big
Идентификатор кодека                     : A_AC3
Продолжительность                        : 57 м. 6 с.
Вид битрейта                             : Постоянный
Битрейт                                  : 384 Кбит/сек
Каналы                                   : 6 каналов
Расположение каналов                     : Front: L C R, Side: L R, LFE
Частота                                  : 48,0 КГц
Частота кадров                           : 31,250 кадров/сек (1536 spf)
Битовая глубина                          : 16 бит
Метод сжатия                             : С потерями
Размер потока                            : 157 Мбайт (5%)
Заголовок                                : AlexFilm 5.1
Язык                                     : Russian
Default                                  : Нет
Forced                                   : Нет
Аудио #5
Идентификатор                            : 6
Формат                                   : AC-3
Формат/Информация                        : Audio Coding 3
Расширение режима                        : CM (complete main)
Параметр Endianness формата              : Big
Идентификатор кодека                     : A_AC3
Продолжительность                        : 57 м. 6 с.
Вид битрейта                             : Постоянный
Битрейт                                  : 384 Кбит/сек
Каналы                                   : 6 каналов
Расположение каналов                     : Front: L C R, Side: L R, LFE
Частота                                  : 48,0 КГц
Частота кадров                           : 31,250 кадров/сек (1536 spf)
Битовая глубина                          : 16 бит
Метод сжатия                             : С потерями
Размер потока                            : 157 Мбайт (5%)
Заголовок                                : Original 5.1
Язык                                     : English
Default                                  : Нет
Forced                                   : Нет
Текст
Идентификатор                            : 7
Формат                                   : ASS
Идентификатор кодека                     : S_TEXT/ASS
Идентификатор кодека/Информация          : Advanced Sub Station Alpha
Продолжительность                        : 8 м. 36 с.
Битрейт                                  : 4 бит/сек
Count of elements                        : 3
Метод сжатия                             : Без потерь
Размер потока                            : 286 байт (0%)
Заголовок                                : rus sub (forced)
Язык                                     : Russian
Default                                  : Да
Forced                                   : Да

скриншот  скриншот  скриншот  


Внимание!

Внимание! Раздача ведётся путём добавления новых серий; при каждом добавлении создётся новый торрент. Чтобы начать докачку новой серии, пользователям необходимо сделать следующее:
(1) остановить скачивание,
(2) удалить старый торрент у себя из клиента (старые серии удалять не надо),
(3) скачать новый торрент и запустить его у себя в клиенте вместо старого, при этом указать клиенту путь в старую папку куда и должно происходить скачивание новых серий.
Ваш клиент при этом должен произвести хеширование (проверку) старой папки (если не производит сам - помогите ему сделать это), и будет докачивать только те серии которых у вас ещё нет. Старые серии при этом не удаляются, а продолжают раздаваться!
Eсли вы уже удалили старые серии, то предотвратить повторную закачку старых серий можно, отжав галочку в соответсвующих местах при запуске нового торрента.
pb.wtf



Скачать Табу через торрент http://i90.fastpic.ru/big/2017/0110/fd/3689bbef7c2aa6d1edb7ef197beeeffd.png Скачать фильм Табу через торрент бесплантно в хорошем качестве Описание: Считающийся погибшим, авантюрист и искатель приключений Джеймс Кезиах Делейни вновь в 1814 году, после 10 лет путешествий в ... 8.2 10 6
Info! Золотая раздача, скачанное не засчитывается.
Торрент: Зарегистрирован [2019-01-04 09:53] · скачан: 112 раз
Статус: √ проверено
Размер: 22.53 GB
Как cкачать? Как скачать Табу через торрент | qTorrent

% Раздел Тема Автор DL S | L
Зарубежные сериалы [ 7.6 GB ] Табу / Taboo / Сезон: 1 / Серии: 1-8 из 8 [2017 BDRip] [MVO] killermax2013 Скачать
1 | 0
Зарубежные сериалы [ 5.14 GB ] Табу / Taboo / Сезон: 1 / Серии: 1-8 из 8 [2017 WEB-DLRip] [MVO] killermax2013 Скачать
1 | 0
Зарубежные сериалы [ 7.46 GB ] Табу / Taboo / Сезон 1 / Серии 1-8 из 8 [2017 WEB-DLRip-AVC] многоголосый [NewStudio] от ExKinoRay Enigma2010 Скачать
1 | 0
Зарубежные сериалы [ 19.88 GB ] Табу / Taboo / Сезон: 1 / Серии: 8 из 8 [2017 WEB-DL 1080p] MVO Ворон Скачать
1 | 0
Фильмы с украинским озвучиванием [ 4.4 GB ] Табу / Taboo / Сезон: 1 / Серии: 1-8 из 8 [2017 WEB-DLRip] [Ukr MVO] killermax2013 Скачать
1 | 0
Зарубежные сериалы [ 10.31 GB ] Табу / Taboo / Сезон: 1 / Серии: 1-8 из 8 [2017 WEBRip 720p / HDTVRip 720p] [DVO] killermax2013 Скачать
2 | 0
Зарубежные сериалы [ 30.9 GB ] Табу / Taboo / Сезон: 1 / Серии: 1-8 из 8 [2017 HDTVRip 1080p] [MVO] killermax2013 Скачать
2 | 0


Последний раз редактировалось: killermax2013 (2019-01-04 09:59), всего редактировалось 2 раз(а)

28-11-2019 20:33  

Отключить всю рекламу на сайте

03-02-2017 11:00 Табу Скачать торрент  

pb.wtf



    Дорогой пользователь! Огромная просьба, поблагодарите релизера, оцените раздачу и оставьте свои комментарий, если Вы скачали Табу через торрент бесплатно! Внесите свою лепту в развитие PiratBit!
    Комментировать посты могут только пользователи прошедшие не сложную регистрацию
    Показать сообщения:    

    Табу через торрент
    Скачать бесплатно Табу
    Табу скачать торрент
    Табу смотреть онлайн
    Cкачать фильм Табу бесплатно
    Табу скачать торрент в хорошем качестве
    Табу смотреть онлайн бесплатно в хорошем качестве


    Вы не можете начинать темы
    Вы не можете отвечать на сообщения
    Вы не можете редактировать свои сообщения
    Вы не можете удалять свои сообщения
    Вы не можете голосовать в опросах
    Вы не можете прикреплять файлы к сообщениям
    Вы можете скачивать файлы