Ссылка на приватное зеркало нашего сайта всего за 1$. Внимание количество ограничено!!!

2 сезон

iTunes

1 сезон

1

2 сезон

2 сезон

iTunes

1 сезон

RePack

30

Новинка

ВАЖНО

ИГРА 18+

pack

RePack

MK11
pack

Забери бонус

RePack

jed

!!Акция!!

Alien_Rage

RePack

fifa19

RePack

Assassins Creed: Odyssey

RePack

NEED FOR SPEED™ PAYBACK

4 сезон

9 сезон

Бесстыжие 9 сезон

Все сериалы

все сериалы на PB.wtf

RePack

FAR CRY 5
  

Волшебники / The Magicians / Сезон: 2 / Серии 1-13 из 13 (Крис Фишер / Chris Fisher, Джошуа Батлер / Joshua Butler, Джеймс Л. Конуэй / James L. Conway) [2017, США, ужасы, фэнтези, драма, WEB-DLRip-AVC] MVO [LostFilm] pb.wtf

Волшебники через торрент pb.wtf

Качают: 1 [ 0 KB/s ]
Размер: 9.41 GB | Добавлен: 3 года 7 мес. назад | Торрент скачан:118 раз
Скачать  

29-01-2017 04:23 Волшебники Скачать торрент  


Волшебники / The Magicians



  • Год выпуска: 2017
  • Страна: США
  • Жанр: ужасы, фэнтези, драма, детектив
  • Продолжительность: 00:45:29 (Серия)
  • Перевод: Профессиональный (многоголосый) [LostFilm]
  • Режиссер: Крис Фишер / Chris Fisher, Джошуа Батлер / Joshua Butler, Джеймс Л. Конуэй / James L. Conway
  • В ролях:

    Джейсон Ральф (Quentin Coldwater), Стелла Маив (Julia Wicker), Оливия Тейлор Дадли (Alice Quinn), Хейл Эйплмен (Eliot Waugh), Саммер Бишил (Margo Hanson), Арджун Гупта (William «Penny» Adiyodi), Джейд Тейлор (Kady Orloff-Diaz), Рик Уорси (Dean Fogg), Чарльз Межер (The Beast), МакКензи Эстин (Richard), Кейси Рол (Marina), Роуз Листон (Jane Chatwin)


  • Жизнь Квентина Колдуотера и Джулии Уикер переворачивается с ног на голову, когда им выпадает шанс пройти собеседование в секретный университет Брейкбиллс. К своему удивлению они обнаруживают, что вместо привычного экзамена им предлагают выполнить тест на магические способности. Молодые люди начинают догадываться, что по соседству с обычными людьми в Нью-Йорке живут волшебники и чародеи. Квентин успешно проходит испытание, но его подруге не удается произвести впечатление на преподавателей университета. Они решают стереть ее память о собеседовании, однако сама судьба противится тому, чтобы Джулия окончательно распрощалась с миром волшебства. Тем временем в стенах Брейкбиллса Колдуотер начинает постигать секреты магического искусства и развивать свои удивительные способности. Квентин еще не знает, что мир магии, который представляется всем волшебным и притягательным, скрывает ужасные тайны...
  • Рейтинг:



  • Качество: WEB-DLRip-AVC
  • Формат: :MPEG-4
  • Видео кодек: AVC
  • Аудио кодек: AC3
  • Видео: 2000 Кбит/сек, 1024*576 (16:9), в 23,976 (24000/1001) кадра/сек, AVC
  • Аудио №1: Русский 192 Кбит/сек, 48,0 КГц, 16 бит, 2 канала, AC-3 [LostFilm]
  • Аудио №2: Английский 192 Кбит/сек, 48,0 КГц, 16 бит, 2 канала, AC-3
  • Релиз от: GEKADOL

    «Волшебники» — телевизионная адаптация популярной книжной трилогии Льва Гроссмана о студентах секретного университета магии и колдовства Брейкбиллс. Литературный первоисточник вошел в список бестселлеров The New York Times и заслужил сравнение с такой классикой жанра фэнтези, как «Хроники Нарнии» и серия романов о Гарри Поттере. Партнером канала Syfy в работе над сериалом стал номинант на премию «Оскар» Майкл Лондон («Иллюзионист»), а пост шоураннера «Волшебников» заняла Сера Гэмбл («Сверхъестественное»/Supernatural). Мрачная и чарующая атмосфера мира магии, харизматичные герои и лихо закрученный сюжет придутся по вкусу как поклонникам творчества Гроссмана, так и любителям интригующих детективов, леденящих душу триллеров и взрослого фэнтези.
    Внимание! Раздача ведётся путём добавления новых серий; при каждом добавлении создаётся новый торрент. Чтобы начать докачку новой серии, пользователям необходимо сделать следующее:
    (1) остановить скачивание,
    (2) удалить старый торрент у себя из клиента (старые серии удалять не надо),
    (3) скачать новый торрент и запустить его у себя в клиенте вместо старого, при этом указать клиенту путь в старую папку куда и должно происходить скачивание новых серий.
    Ваш клиент при этом должен произвести хеширование (проверку) старой папки (если не производит сам - помогите ему сделать это), и будет докачивать только те серии которых у вас ещё нет. Старые серии при этом не удаляются, а продолжают раздаваться!
    Eсли вы уже удалили старые серии, то предотвратить повторную закачку старых серий можно, отжав галочку в соответствующих местах при запуске нового торрента. По возможности, желательно не удалять старые серии как можно дольше чтобы релизёр не столько продолжал раздавать старые серии, а смог сконцентрироваться на новых.

    Общее
    Полное имя : H:\Волшебники (The Magicians 2)\The.Magicians.S02E01.WEB-DLRip-AVC.rus.LostFilm.TV.mp4
    Формат : MPEG-4
    Профиль формата : Base Media
    Идентификатор кодека : isom (isom/iso2/avc1/mp41)
    Размер файла : 785 Мбайт
    Продолжительность : 45 м. 55 с.
    Общий поток : 2391 Кбит/сек
    Программа кодирования : XviD4PSP 7.0.349 DAILY
    HDVideo : Yes
    encoding_info : MATROSKA / WEBM > MP4 Произвольный / H264 > X264 CBR 2000kbps HQ / AC3 > AC3 CBR 192kbps / AC3 > AC3 CBR 192kbps

    Видео
    Идентификатор : 1
    Формат : AVC
    Формат/Информация : Advanced Video Codec
    Профиль формата : High@L4.1
    Параметр CABAC формата : Да
    Параметр ReFrames формата : 4 кадра
    Идентификатор кодека : avc1
    Идентификатор кодека/Информация : Advanced Video Coding
    Продолжительность : 45 м. 55 с.
    Битрейт : 2000 Кбит/сек
    Ширина : 1024 пикселя
    Высота : 576 пикселей
    Соотношение сторон : 16:9
    Режим частоты кадров : Постоянный
    Частота кадров : 23,976 (24000/1001) кадра/сек
    Цветовое пространство : YUV
    Субдискретизация насыщенности : 4:2:0
    Битовая глубина : 8 бит
    Тип развёртки : Прогрессивная
    Бит/(Пиксели*Кадры) : 0.141
    Размер потока : 658 Мбайт (84%)
    Библиотека кодирования : x264 core 148 r2762M 90a61ec
    Настройки программы : cabac=1 / ref=3 / deblock=1:-1:-1 / analyse=0x3:0x133 / me=hex / subme=7 / psy=1 / psy_rd=1.00:0.20 / mixed_ref=1 / me_range=16 / chroma_me=1 / trellis=1 / 8x8dct=1 / cqm=0 / deadzone=21,11 / fast_pskip=1 / chroma_qp_offset=-3 / threads=5 / lookahead_threads=1 / sliced_threads=0 / nr=0 / decimate=1 / interlaced=0 / bluray_compat=0 / constrained_intra=0 / bframes=3 / b_pyramid=2 / b_adapt=2 / b_bias=0 / direct=3 / weightb=1 / open_gop=0 / weightp=2 / keyint=230 / keyint_min=23 / scenecut=40 / intra_refresh=0 / rc_lookahead=40 / rc=cbr / mbtree=1 / bitrate=2000 / ratetol=1.0 / qcomp=0.60 / qpmin=0 / qpmax=69 / qpstep=4 / vbv_maxrate=2000 / vbv_bufsize=30000 / nal_hrd=none / filler=0 / ip_ratio=1.40 / aq=1:1.00

    Аудио #1
    Идентификатор : 2
    Формат : AC-3
    Формат/Информация : Audio Coding 3
    Расширение режима : CM (complete main)
    Параметр Endianness формата : Big
    Идентификатор кодека : ac-3
    Продолжительность : 45 м. 55 с.
    Вид битрейта : Постоянный
    Битрейт : 192 Кбит/сек
    Каналы : 2 канала
    Расположение каналов : Front: L R
    Частота : 48,0 КГц
    Частота кадров : 31,250 кадров/сек (1536 spf)
    Битовая глубина : 16 бит
    Метод сжатия : С потерями
    Размер потока : 63,1 Мбайт (8%)
    Default : Да
    Alternate group : 1

    Аудио #2
    Идентификатор : 3
    Формат : AC-3
    Формат/Информация : Audio Coding 3
    Расширение режима : CM (complete main)
    Параметр Endianness формата : Big
    Идентификатор кодека : ac-3
    Продолжительность : 45 м. 55 с.
    Вид битрейта : Постоянный
    Битрейт : 192 Кбит/сек
    Каналы : 2 канала
    Расположение каналов : Front: L R
    Частота : 48,0 КГц
    Частота кадров : 31,250 кадров/сек (1536 spf)
    Битовая глубина : 16 бит
    Метод сжатия : С потерями
    Размер потока : 63,1 Мбайт (8%)
    Default : Нет
    Alternate group : 1





    Скриншоты:
    скриншот   скриншот   скриншот   скриншот   скриншот   скриншот   скриншот  
    скриншот  

    Раздача ведётся путём добавления новых серий. Добавлена 13 серия (22.04.2017).Просьба перекачать торрент файл.


    pb.wtf



  • Скачать Волшебники через торрент http://pic1.kartinco.top/images/11/9c5jn.jpg Скачать фильм Волшебники через торрент бесплантно в хорошем качестве qw.png Жизнь Квентина Колдуотера и Джулии Уикер переворачивается с ног на голову, когда им выпадает шанс пройти собеседование в секретный ... 9.2 10 23
    Info! Золотая раздача, скачанное не засчитывается.
    Торрент: Зарегистрирован [2017-04-22 02:06] · скачан: 118 раз
    Статус: √ проверено
    Размер: 9.41 GB
    Как cкачать? Как скачать Волшебники через торрент | qTorrent

    % Раздел Тема Автор DL S | L
    Зарубежные сериалы [ 19.02 GB ] Волшебники / The Magicians / Сезон: 2 / Серии: 1-13 из 13 [2017 WEB-DL 720p] MVO [Jaskier] bober100 Скачать
    1 | 0
    Зарубежные сериалы [ 6.99 GB ] Волшебники / The Magicians / Сезон: 2 / Серии: 1-13 из 13 [2017 WEB-DLRip] MVO [Jaskier] bober100 Скачать
    1 | 0
    Зарубежные сериалы [ 6.99 GB ] Волшебники / The Magicians / 2 сезон / Серии 1-13 из 13 [2017 WEB-DLRip] MVO [LostFilm] bober100 Скачать
    1 | 0
    Зарубежные сериалы [ 23.76 GB ] Волшебники / The Magicians / Сезон 2 / Серии 1-13 из 13 [2017 WEB-DLRip 1080p многоголосый LostFilm] Vladislav@Pskov Скачать
    1 | 0


    Последний раз редактировалось: GEKADOL (2017-04-22 02:06), всего редактировалось 17 раз(а)

    28-11-2019 20:33  

    Отключить всю рекламу на сайте

    29-01-2017 05:24 Волшебники Скачать торрент  

    Большое спасибо, давно ждал ! pb.wtf



    29-01-2017 05:26 Волшебники Скачать торрент  

    Chuvackk писал(а):

    Большое спасибо, давно ждал !

    pb.wtf



    29-01-2017 10:43 Волшебники Скачать торрент  

    1080р в студию! Так смотреть не возможно!

    pb.wtf



    13-02-2017 19:06 Волшебники Скачать торрент  

    pb.wtf



    31-01-2018 15:34 Волшебники Скачать торрент  

    Станьте на раздачу,пожалуйста!pb.wtf



      Дорогой пользователь! Огромная просьба, поблагодарите релизера, оцените раздачу и оставьте свои комментарий, если Вы скачали Волшебники через торрент бесплатно! Внесите свою лепту в развитие PiratBit!
      Комментировать посты могут только пользователи прошедшие не сложную регистрацию
      Показать сообщения:    

      Волшебники через торрент
      Скачать бесплатно Волшебники
      Волшебники скачать торрент
      Волшебники смотреть онлайн
      Cкачать фильм Волшебники бесплатно
      Волшебники скачать торрент в хорошем качестве
      Волшебники смотреть онлайн бесплатно в хорошем качестве


      Вы не можете начинать темы
      Вы не можете отвечать на сообщения
      Вы не можете редактировать свои сообщения
      Вы не можете удалять свои сообщения
      Вы не можете голосовать в опросах
      Вы не можете прикреплять файлы к сообщениям
      Вы можете скачивать файлы