Ссылка на приватное зеркало нашего сайта всего за 1$. Внимание количество ограничено!!!

2 сезон

iTunes

1 сезон

1

2 сезон

2 сезон

iTunes

1 сезон

RePack

30

Новинка

ВАЖНО

ИГРА 18+

pack

RePack

MK11
pack

Забери бонус

RePack

jed

!!Акция!!

Alien_Rage

RePack

fifa19

RePack

Assassins Creed: Odyssey

RePack

NEED FOR SPEED™ PAYBACK

4 сезон

9 сезон

Бесстыжие 9 сезон

Все сериалы

все сериалы на PB.wtf

RePack

FAR CRY 5
  

Волшебники / The Magicians / Сезон 1 / Серии 1-13 из 13 (Крис Фишер / Chris Fisher, Джошуа Батлер / Joshua Butler, Джеймс Л. Конуэй / James L. Conway) [2015, США, ужасы, фэнтези, драма, WEB-DLRip-AVC] MVO [LostFilm] pb.wtf

Волшебники через торрент pb.wtf

Размер: 9.49 GB | Добавлен: 3 года 9 мес. назад | Торрент скачан:642 раза
Скачать  

29-01-2017 06:10 Волшебники Скачать торрент  


Волшебники / The Magicians



  • Год выпуска: 2015

  • Страна: США
  • Жанр: ужасы, фэнтези, драма, детектив
  • Продолжительность: 00:48:29 (Серия)
  • Перевод: Профессиональный (многоголосый)[LostFilm]
  • Режиссер: Крис Фишер / Chris Fisher, Джошуа Батлер / Joshua Butler, Джеймс Л. Конуэй / James L. Conway
  • В ролях:

    Джейсон Ральф (Quentin Coldwater), Стелла Маив (Julia Wicker), Оливия Тейлор Дадли (Alice Quinn), Хейл Эйплмен (Eliot Waugh), Саммер Бишил (Margo Hanson), Арджун Гупта (William «Penny» Adiyodi), Джейд Тейлор (Kady Orloff-Diaz), Рик Уорси (Dean Fogg), Чарльз Межер (The Beast), МакКензи Эстин (Richard), Кейси Рол (Marina), Роуз Листон (Jane Chatwin)


  • Жизнь Квентина Колдуотера и Джулии Уикер переворачивается с ног на голову, когда им выпадает шанс пройти собеседование в секретный университет Брейкбиллс. К своему удивлению они обнаруживают, что вместо привычного экзамена им предлагают выполнить тест на магические способности. Молодые люди начинают догадываться, что по соседству с обычными людьми в Нью-Йорке живут волшебники и чародеи. Квентин успешно проходит испытание, но его подруге не удается произвести впечатление на преподавателей университета. Они решают стереть ее память о собеседовании, однако сама судьба противится тому, чтобы Джулия окончательно распрощалась с миром волшебства. Тем временем в стенах Брейкбиллса Колдуотер начинает постигать секреты магического искусства и развивать свои удивительные способности. Квентин еще не знает, что мир магии, который представляется всем волшебным и притягательным, скрывает ужасные тайны...
  • Рейтинг:



  • Качество: WEB-DLRip-AVC
  • Формат: :MPEG-4
  • Видео кодек: AVC
  • Аудио кодек: AC3
  • Видео: 2000 Кбит/сек, 1024*576 (16:9), в 23,976 (24000/1001) кадра/сек, AVC
  • Аудио №1: Русский 192 Кбит/сек, 48,0 КГц, 16 бит, 2 канала, AC-3 [LostFilm]
  • Аудио №2: Английский 192 Кбит/сек, 48,0 КГц, 16 бит, 2 канала, AC-3
  • Релиз от: GEKADOL
    «Волшебники» — телевизионная адаптация популярной книжной трилогии Льва Гроссмана о студентах секретного университета магии и колдовства Брейкбиллс. Литературный первоисточник вошел в список бестселлеров The New York Times и заслужил сравнение с такой классикой жанра фэнтези, как «Хроники Нарнии» и серия романов о Гарри Поттере. Партнером канала Syfy в работе над сериалом стал номинант на премию «Оскар» Майкл Лондон («Иллюзионист»), а пост шоураннера «Волшебников» заняла Сера Гэмбл («Сверхъестественное»/Supernatural). Мрачная и чарующая атмосфера мира магии, харизматичные герои и лихо закрученный сюжет придутся по вкусу как поклонникам творчества Гроссмана, так и любителям интригующих детективов, леденящих душу триллеров и взрослого фэнтези.

    Общее
    Полное имя : H:\Волшебники (The Magicians)\The.Magicians.S01E13.WEB-DLRip-AVC.rus.LostFilm.TV.mp4
    Формат : MPEG-4
    Профиль формата : Base Media
    Идентификатор кодека : isom (isom/iso2/avc1/mp41)
    Размер файла : 830 Мбайт
    Продолжительность : 48 м. 29 с.
    Общий поток : 2392 Кбит/сек
    Программа кодирования : XviD4PSP 7.0.349 DAILY
    HDVideo : Yes
    encoding_info : MATROSKA / WEBM > MP4 Произвольный / H264 > X264 CBR 2000kbps HQ / AC3 > AC3 CBR 192kbps / AC3 > AC3 CBR 192kbps

    Видео
    Идентификатор : 1
    Формат : AVC
    Формат/Информация : Advanced Video Codec
    Профиль формата : High@L4.1
    Параметр CABAC формата : Да
    Параметр ReFrames формата : 4 кадра
    Идентификатор кодека : avc1
    Идентификатор кодека/Информация : Advanced Video Coding
    Продолжительность : 48 м. 29 с.
    Битрейт : 2000 Кбит/сек
    Ширина : 1024 пикселя
    Высота : 576 пикселей
    Соотношение сторон : 16:9
    Режим частоты кадров : Постоянный
    Частота кадров : 23,976 (24000/1001) кадра/сек
    Цветовое пространство : YUV
    Субдискретизация насыщенности : 4:2:0
    Битовая глубина : 8 бит
    Тип развёртки : Прогрессивная
    Бит/(Пиксели*Кадры) : 0.141
    Размер потока : 695 Мбайт (84%)
    Библиотека кодирования : x264 core 148 r2762M 90a61ec
    Настройки программы : cabac=1 / ref=3 / deblock=1:-1:-1 / analyse=0x3:0x133 / me=hex / subme=7 / psy=1 / psy_rd=1.00:0.20 / mixed_ref=1 / me_range=16 / chroma_me=1 / trellis=1 / 8x8dct=1 / cqm=0 / deadzone=21,11 / fast_pskip=1 / chroma_qp_offset=-3 / threads=5 / lookahead_threads=1 / sliced_threads=0 / nr=0 / decimate=1 / interlaced=0 / bluray_compat=0 / constrained_intra=0 / bframes=3 / b_pyramid=2 / b_adapt=2 / b_bias=0 / direct=3 / weightb=1 / open_gop=0 / weightp=2 / keyint=230 / keyint_min=23 / scenecut=40 / intra_refresh=0 / rc_lookahead=40 / rc=cbr / mbtree=1 / bitrate=2000 / ratetol=1.0 / qcomp=0.60 / qpmin=0 / qpmax=69 / qpstep=4 / vbv_maxrate=2000 / vbv_bufsize=30000 / nal_hrd=none / filler=0 / ip_ratio=1.40 / aq=1:1.00

    Аудио #1
    Идентификатор : 2
    Формат : AC-3
    Формат/Информация : Audio Coding 3
    Расширение режима : CM (complete main)
    Параметр Endianness формата : Big
    Идентификатор кодека : ac-3
    Продолжительность : 48 м. 29 с.
    Вид битрейта : Постоянный
    Битрейт : 192 Кбит/сек
    Каналы : 2 канала
    Расположение каналов : Front: L R
    Частота : 48,0 КГц
    Частота кадров : 31,250 кадров/сек (1536 spf)
    Битовая глубина : 16 бит
    Метод сжатия : С потерями
    Размер потока : 66,6 Мбайт (8%)
    Default : Да
    Alternate group : 1

    Аудио #2
    Идентификатор : 3
    Формат : AC-3
    Формат/Информация : Audio Coding 3
    Расширение режима : CM (complete main)
    Параметр Endianness формата : Big
    Идентификатор кодека : ac-3
    Продолжительность : 48 м. 29 с.
    Вид битрейта : Постоянный
    Битрейт : 192 Кбит/сек
    Каналы : 2 канала
    Расположение каналов : Front: L R
    Частота : 48,0 КГц
    Частота кадров : 31,250 кадров/сек (1536 spf)
    Битовая глубина : 16 бит
    Метод сжатия : С потерями
    Размер потока : 66,6 Мбайт (8%)
    Default : Нет
    Alternate group : 1



    Скриншоты:



    pb.wtf



  • Скачать Волшебники через торрент http://pic1.kartinco.top/images/11/9c5jn.jpg Скачать фильм Волшебники через торрент бесплантно в хорошем качестве qw.png Жизнь Квентина Колдуотера и Джулии Уикер переворачивается с ног на голову, когда им выпадает шанс пройти собеседование в секретный ... 9.4 10 19
    Info! Золотая раздача, скачанное не засчитывается.
    Торрент: Зарегистрирован [2017-01-29 06:10] · скачан: 642 раз
    Статус: √ проверено
    Размер: 9.49 GB
    Как cкачать? Как скачать Волшебники через торрент | qTorrent

    % Раздел Тема Автор DL S | L
    Зарубежные сериалы [ 34.63 GB ] Волшебники / The Magicians / Сезон: 5 / Серии: 1-13 из 13 [2020 WEB-DL 1080p] MVO [TVShows] bober100 Скачать
    1 | 1
    Зарубежные сериалы [ 17.53 GB ] Волшебники / The Magicians / Сезон: 5 / Серии: 1-13 из 13 [2020 WEB-DL 720p] MVO [TVShows] bober100 Скачать
    1 | 1
    Зарубежные сериалы [ 12.63 GB ] Волшебники / The Magicians / Сезон: 5 / Серии: 1-9 из 13 [2020 WEB-DL 720p] MVO [Lostfilm] bober100 Скачать
    1 | 0
    Зарубежные сериалы [ 621 MB ] Волшебники / The Magicians / Сезон: 5 / Серии: 1- из 13 [2020 WEB-DLRip] MVO [Lostfilm] bober100 Скачать
    1 | 0
    Зарубежные сериалы [ 35.51 GB ] Волшебники / The Magicians / Сезон: 5 / Серии: 1-13 из 13 [2020 WEB-DL 1080p] MVO [Lostfilm] bober100 Скачать
    1 | 0
    Зарубежные сериалы [ 17.53 GB ] Волшебники / The Magicians / Сезон: 4 / Серии: 1-13 из 13 [2019 WEB-DL 720] MVO [LostFilm] bober100 Скачать
    1 | 0
    Зарубежные сериалы [ 30.4 GB ] Волшебники / The Magicians / Сезон 4 / Серии 1-13 из 13 [2019 WEB-DLRip 1080p] MVO [LostFilm] Vladislav@Pskov Скачать
    1 | 0

    28-11-2019 20:33  

    Отключить всю рекламу на сайте

      Дорогой пользователь! Огромная просьба, поблагодарите релизера, оцените раздачу и оставьте свои комментарий, если Вы скачали Волшебники через торрент бесплатно! Внесите свою лепту в развитие PiratBit!
      Комментировать посты могут только пользователи прошедшие не сложную регистрацию
      Показать сообщения:    

      Волшебники через торрент
      Скачать бесплатно Волшебники
      Волшебники скачать торрент
      Волшебники смотреть онлайн
      Cкачать фильм Волшебники бесплатно
      Волшебники скачать торрент в хорошем качестве
      Волшебники смотреть онлайн бесплатно в хорошем качестве


      Вы не можете начинать темы
      Вы не можете отвечать на сообщения
      Вы не можете редактировать свои сообщения
      Вы не можете удалять свои сообщения
      Вы не можете голосовать в опросах
      Вы не можете прикреплять файлы к сообщениям
      Вы можете скачивать файлы