Ссылка на приватное зеркало всего за 1$. Внимание количество ограничено!!!

iTunes

iTunes

iTunes

1

iTunes

iTunes

iTunes

iTunes

iTunes

30
pack

$ от Little Big

ВАЖНО

!!Акция!!

Alien_RageХит недели

RePack

Resident Evil 21

ИГРА 18+

pack

RePack

jed

!!Акция!!

Alien_Rage

RePack

fifa19

RePack

Assassins Creed: Odyssey

RePack

NEED FOR SPEED™ PAYBACK

4 сезон

9 сезон

Бесстыжие 9 сезон

Все сериалы

все сериалы на PB.wtf

RePack

FAR CRY 5
  

По млечному пути / On the Milky Road (Эмир Кустурица) [2016, драма, WEB-DL 1080p] Дубляж - [Лицензия / iTunes] pb.wtf

По млечному пути через торрент pb.wtf

Размер: 4.2 GB | Добавлен: 3 года 5 мес. назад | Торрент скачан:556 раз
Скачать  

29-01-2017 07:37 По млечному пути Скачать торрент  

По млечному пути / On the Milky Road

Год выпуска: 2016
Страна: Сербия, Великобритания, США
Жанр: драма
Продолжительность: 02:00:07
Перевод: Дубляж - [Лицензия / iTunes]
Режиссер: Эмир Кустурица
В ролях:

Моника Беллуччи (Nevesta), Эмир Кустурица (Kosta), Слобода Мичалович (Milena), Сергей Трифунович, Мики Манойлович, Зоран Цвиянович, Байрам Севердзан, Мария Даркина (Luna), Давор Янжич, Новак Билбия, Петар Мирчевски, Бранислав Фистрич (Soldier)
Описание:
История о любви, происходящая в период боснийской войны. Фильм основан на новелле Кустурицы из сборника короткометражных фильмов «Разговоры с богами» (2014).
Рейтинг:

Качество: WEB-DL 1080p
Формат: MKV
Видео: AVC, 1920x804 (2.40:1), 4524 kbps, 25 fps, 0,117 bpp
Аудио: русский / AC3 / 5.1 / 48 kHz / 384 kbps / |Дубляж, iTunes|
Навигация по главам: есть

General
Unique ID : 196455601505498205657298624212414114299 (0x93CBF8FA3AD782FA9D02B8068E0A29FB)
Complete name : E:\Po.MleCHnoMu.Puti.2O16.D.WEB-DL.1O8Op.mkv
Format : Matroska
Format version : Version 2
File size : 4.20 GiB
Duration : 2 h 0 min
Overall bit rate : 5 008 kb/s
Movie name : Voellig.von.der.Wolle.-.Ein.maeaeaehrchenhaftes.Kuddelmuddel.2016.German.1080p.DL.DTSHD.BluRay.AVC.Remux-pmHD
Encoded date : UTC 2017-01-28 22:35:35
Writing application : mkvmerge v8.3.0 ('Over the Horizon') 64bit
Writing library : libebml v1.3.1 + libmatroska v1.4.2

Video
ID : 1
Format : AVC
Format/Info : Advanced Video Codec
Format profile : High@L4
Format settings, CABAC : Yes
Format settings, ReFrames : 5 frames
Codec ID : V_MPEG4/ISO/AVC
Duration : 2 h 0 min
Bit rate : 4 524 kb/s
Width : 1 920 pixels
Height : 804 pixels
Display aspect ratio : 2.40:1
Frame rate mode : Constant
Frame rate : 25.000 FPS
Color space : YUV
Chroma subsampling : 4:2:0
Bit depth : 8 bits
Scan type : Progressive
Bits/(Pixel*Frame) : 0.117
Stream size : 3.80 GiB (90%)
Language : English
Default : Yes
Forced : No
Color range : Limited
Color primaries : BT.709
Transfer characteristics : BT.709
Matrix coefficients : BT.709

Audio
ID : 2
Format : AC-3
Format/Info : Audio Coding 3
Mode extension : CM (complete main)
Format settings, Endianness : Big
Codec ID : A_AC3
Duration : 2 h 0 min
Bit rate mode : Constant
Bit rate : 384 kb/s
Channel(s) : 6 channels
Channel positions : Front: L C R, Side: L R, LFE
Sampling rate : 48.0 kHz
Frame rate : 31.250 FPS (1536 spf)
Compression mode : Lossy
Stream size : 330 MiB (8%)
Language : Russian
Default : Yes
Forced : No

Menu
00:00:00.000 : en:Глава 1
00:09:02.800 : en:Глава 2
00:14:59.760 : en:Глава 3
00:20:12.720 : en:Глава 4
00:28:43.640 : en:Глава 5
00:35:58.320 : en:Глава 6
00:43:57.720 : en:Глава 7
00:48:58.600 : en:Глава 8
00:54:29.920 : en:Глава 9
01:00:28.560 : en:Глава 10
01:06:38.160 : en:Глава 11
01:13:28.960 : en:Глава 12
01:18:39.840 : en:Глава 13
01:24:24.120 : en:Глава 14
01:29:58.720 : en:Глава 15
01:35:35.400 : en:Глава 16
01:41:40.360 : en:Глава 17
01:46:33.080 : en:Глава 18
01:51:50.360 : en:Глава 18
pb.wtf



Скачать По млечному пути через торрент http://i3.imageban.ru/out/2017/01/29/82e91750e89e5753711898b72183f658.jpg Скачать фильм По млечному пути через торрент бесплантно в хорошем качестве Описание: История о любви, происходящая в период боснийской войны. Фильм основан на новелле Кустурицы из сборника короткометражных фильмов ... 8.7 10 7
Info! Золотая раздача, скачанное не засчитывается.
Торрент: Зарегистрирован [2017-01-29 07:37] · скачан: 556 раз
Статус: √ проверено
Размер: 4.2 GB
Как cкачать? Как скачать По млечному пути через торрент | qTorrent

% Раздел Тема Автор DL S | L
Фильмы 2016 [DVDrip, WEB-DLRip, HDrip] (DUB, MVO) [ 1.37 GB ] По млечному пути / On the Milky Road [2016 экранизация WEB-DLRip ] oleg8 Скачать
3 | 0
Фильмы 2016 [DVDrip, WEB-DLRip, HDrip] (DUB, MVO) [ 2.18 GB ] По млечному пути / On the Milky Road [2016 WEB-DLRip ""] coc900 Скачать
1 | 0

28-11-2019 20:33  

Отключить всю рекламу на сайте

29-01-2017 08:24 По млечному пути Скачать торрент  

Кто смотрел? как фильм?pb.wtf



29-01-2017 14:12 По млечному пути Скачать торрент  

Спасибо, оперативно..

pepsiteampsix писал(а):

Кто смотрел? как фильм?

так и не скажешь, что бы понять более-менее в кинопоиске почитай критиков...
Кратко...., фильм о большой любви на фоне смерти, очень многогранный по эмоциям, да что уж там говорить мировой уровень+моника с эмиром...pb.wtf



06-02-2017 20:08 По млечному пути Скачать торрент  

Да фильм неплохой, стоит посмотреть. Кустурица в своём амплуа, хотя первые пол фильма было желание выключить пару раз, но всё же досмотрел и не пожалел, хорошее кино.pb.wtf



07-02-2017 22:25 По млечному пути Скачать торрент  

Не являясь знатоком и поклонником его творчества, не сомневался и раньше, что крут Эмирка-брат. Не до небес кино конечно, но с чувством и невстандарте. Моника и в эти годы все равно - богиня. Спс Эмиру и Декстеру.pb.wtf



    Дорогой пользователь! Огромная просьба, поблагодарите релизера, оцените раздачу и оставьте свои комментарий, если Вы скачали По млечному пути через торрент бесплатно! Внесите свою лепту в развитие PiratBit!
    Комментировать посты могут только пользователи прошедшие не сложную регистрацию
    Показать сообщения:    

    По млечному пути через торрент
    Скачать бесплатно По млечному пути
    По млечному пути скачать торрент
    По млечному пути смотреть онлайн
    Cкачать фильм По млечному пути бесплатно
    По млечному пути скачать торрент в хорошем качестве
    По млечному пути смотреть онлайн бесплатно в хорошем качестве


    Вы не можете начинать темы
    Вы не можете отвечать на сообщения
    Вы не можете редактировать свои сообщения
    Вы не можете удалять свои сообщения
    Вы не можете голосовать в опросах
    Вы не можете прикреплять файлы к сообщениям
    Вы можете скачивать файлы