Ссылка на приватное зеркало нашего сайта всего за 1$. Внимание количество ограничено!!!

2 сезон

iTunes

1 сезон

1

2 сезон

2 сезон

iTunes

1 сезон

RePack

30

Новинка

ВАЖНО

ИГРА 18+

pack

RePack

MK11
pack

Забери бонус

RePack

jed

!!Акция!!

Alien_Rage

RePack

fifa19

RePack

Assassins Creed: Odyssey

RePack

NEED FOR SPEED™ PAYBACK

4 сезон

9 сезон

Бесстыжие 9 сезон

Все сериалы

все сериалы на PB.wtf

RePack

FAR CRY 5
  

Шведские стволы / Придурки из Швеции / Swedish Dicks / Сезон: 1 / Серии 1-10 из 10 (Джон Холмберг, Питер Сеттман) [2016, комедия, WEB-DL 720p] [VO] (datynet) pb.wtf

Шведские стволы через торрент pb.wtf

Размер: 7.44 GB | Добавлен: 3 года 6 мес. назад | Торрент скачан:41 раз
Скачать  

29-01-2017 10:26 Шведские стволы Скачать торрент  

Шведские стволы / Придурки из Швеции / Swedish Dicks
Год выхода: 2016
Страна: США, Швеция
Жанр: комедия
Продолжительность: 1x ~24:00:00
Перевод: Любительский (одноголосый закадровый) datynet

Режиссер: Джон Холмберг, Питер Сеттман
Сценарий: Эндрю Лоури, Эндрю Лоувери, Питер Сеттман
Продюсер: Гленн Ланд, Нина Ланд

В ролях: Петер Стормаре / Peter Stormare (Ingmar), Йохан Гланс / Johan Glans (Axel), Вивиан Банг / Vivian Bang (Sun), Фелиша Купер / Felisha Cooper (Sarah), Киану Ривз / Keanu Reeves (Tex) , Трейси Лордс / Traci Lords (Jane McKinney)..., все актёры

Описание: Действие сериала разворачивается в Лос-Анджелесе, где некогда успешный швед Ингмар (Петер Стормаре) пытается зарабатывать на жизнь в качестве частного детектива, после того, как его карьера каскадёра закончилась трагедией. Очередное дело приводит его к ничего не подозревающему земляку Акселю (Юхан Гланс), который достиг довольно больших успехов, путешествуя по миру в качестве ди-джея, но в конце-концов удача покинула его. Аксель готов к новым свершениям и в итоге присоединяется к агентству Ингмара под названием "Шведский ствол", трансформировавшемуся отныне в "Шведские стволы", где они распутывают самые странные происшествия в городе.
Видео: |anbelk27|
Озвучка: Антон Агапов |datynet| aka |Bezdaty|
Перевод и субтитры: Станислав Бельков (серии 1-2) и Оксана Барбашова |Auksta| (серии 3-10)

Инициатива и финансирование: Владимир Бондарев |VlaBonZ|


Качество: WEB-DL 720p
Формат: MKV
Видео: H.264/AVC, 1280x720 (16:9), 25 fps, 3500-5250 Kbps, 0.144-0.220 bit/pixel
Аудио 1: 48 kHz, AC3 , 2 channels, 192 kbps | Russian | datynet
Аудио 2: 48 kHz, AC3, 2 channels, 192 kbps | Multilang (English & Sweden) | Original
Субтитры: русские (полные, отключаемые | softsub, srt)
Реклама: отсутствует
Общее
Уникальный идентификатор : 225324308303821677973482858450846649189 (0xA983E21D11D279D088FDAC05C8B68B65)
Полное имя : G:\Swedish Dicks [Season 01]\S01E01. Swedish Dicks. Episode #1.1.mkv
Формат : Matroska
Версия формата : Version 2
Размер файла : 657 Мбайт
Продолжительность : 24 м. 22 с.
Общий поток : 3772 Кбит/сек
Дата кодирования : UTC 2017-01-16 10:53:23
Программа кодирования : mkvmerge v5.8.0 ('No Sleep / Pillow') built on Sep 2 2012 15:37:04
Библиотека кодирования : libebml v1.2.3 + libmatroska v1.3.0
Видео
Идентификатор : 1
Формат : AVC
Формат/Информация : Advanced Video Codec
Профиль формата : Main@L4.1
Параметр CABAC формата : Да
Параметр ReFrames формата : 2 кадра
Идентификатор кодека : V_MPEG4/ISO/AVC
Продолжительность : 24 м. 22 с.
Вид битрейта : Постоянный
Битрейт : 3313 Кбит/сек
Номинальный битрейт : 3500 Кбит/сек
Ширина : 1280 пикселей
Высота : 720 пикселей
Соотношение сторон : 16:9
Режим частоты кадров : Постоянный
Частота кадров : 25,000 кадров/сек
Цветовое пространство : YUV
Субдискретизация насыщенности : 4:2:0
Битовая глубина : 8 бит
Тип развёртки : Прогрессивная
Бит/(Пиксели*Кадры) : 0.144
Размер потока : 577 Мбайт (88%)
Заголовок : S01E01. Swedish Dicks. Episode #1.1
Default : Да
Forced : Нет
Аудио #1
Идентификатор : 2
Формат : AC-3
Формат/Информация : Audio Coding 3
Расширение режима : CM (complete main)
Параметр Endianness формата : Big
Идентификатор кодека : A_AC3
Продолжительность : 24 м. 22 с.
Вид битрейта : Постоянный
Битрейт : 192 Кбит/сек
Каналы : 2 канала
Расположение каналов : Front: L R
Частота : 48,0 КГц
Частота кадров : 31,250 кадров/сек (1536 spf)
Битовая глубина : 16 бит
Метод сжатия : С потерями
Задержка видео : -33 мс.
Размер потока : 33,5 Мбайт (5%)
Заголовок : VO [datynet]
Язык : Russian
Default : Да
Forced : Нет
Аудио #2
Идентификатор : 3
Формат : AC-3
Формат/Информация : Audio Coding 3
Расширение режима : CM (complete main)
Параметр Endianness формата : Big
Идентификатор кодека : A_AC3
Продолжительность : 24 м. 22 с.
Вид битрейта : Постоянный
Битрейт : 192 Кбит/сек
Каналы : 2 канала
Расположение каналов : Front: L R
Частота : 48,0 КГц
Частота кадров : 31,250 кадров/сек (1536 spf)
Битовая глубина : 16 бит
Метод сжатия : С потерями
Задержка видео : -33 мс.
Размер потока : 33,5 Мбайт (5%)
Заголовок : [Original]
Default : Нет
Forced : Нет
Текст
Идентификатор : 4
Формат : UTF-8
Идентификатор кодека : S_TEXT/UTF8
Идентификатор кодека/Информация : UTF-8 Plain Text
Заголовок : [Станислав Бельков]
Язык : Russian
Default : Нет
Forced : Нет
Внимание! Раздача ведётся путём добавления новых серий; при каждом добавлении создаётся новый торрент. Чтобы начать докачку новой серии, пользователям необходимо сделать следующее:
(1) остановить скачивание,
(2) удалить старый торрент у себя из клиента (старые серии удалять не надо),
(3) скачать новый торрент и запустить его у себя в клиенте вместо старого, при этом указать клиенту путь в старую папку куда и должно происходить скачивание новых серий.
Ваш клиент при этом должен произвести хеширование (проверку) старой папки (если не производит сам - помогите ему сделать это), и будет докачивать только те серии которых у вас ещё нет. Старые серии при этом не удаляются, а продолжают раздаваться!
Eсли вы уже удалили старые серии, то предотвратить повторную закачку старых серий можно, отжав галочку в соответствующих местах при запуске нового торрента. По возможности, желательно не удалять старые серии как можно дольше чтобы релизёр не столько продолжал раздавать старые серии, а смог сконцентрироваться на новых.
pb.wtf



Скачать Шведские стволы через торрент http://i91.fastpic.ru/big/2017/0113/bc/2f01329984ec7da463a832a5a3f6efbc.jpg Скачать фильм Шведские стволы через торрент бесплантно в хорошем качестве Описание: Действие сериала разворачивается в Лос-Анджелесе, где некогда успешный швед Ингмар (Петер Стормаре) пытается зарабатывать на ... 10 10 6
Info! Серебряная раздача, засчитывается только 50% скачанного.
Торрент: Зарегистрирован [2017-05-01 08:47] · скачан: 41 раз
Статус: √ проверено
Размер: 7.44 GB
Как cкачать? Как скачать Шведские стволы через торрент | qTorrent

% Раздел Тема Автор DL S | L
Зарубежные сериалы [ 8.95 GB ] Шведские стволы / Придурки из Швеции / Swedish Dicks / Сезон: 2 / Серии: 1-10 из 10 [2017 WEB-DL 1080p] DVO [ViruseProject] bober100 Скачать
1 | 0
# Зарубежные сериалы [ 8.95 GB ] Придурки из Швеции / Шведские стволы / Swedish Dicks / Сезон: 2 / Серии 1-10 из 10 [2018 WEB-DL 1080p] [VO] killermax2013 Скачать
1 | 0
Зарубежные сериалы [ 3.26 GB ] Шведские стволы / Придурки из Швеции / Swedish Dicks / Сезон: 1 / Серии 1-10 из 10 [2016 WEB-DLRip] [VO] killermax2013 Скачать
1 | 0


Последний раз редактировалось: killermax2013 (2017-05-01 09:04), всего редактировалось 3 раз(а)

28-11-2019 20:33  

Отключить всю рекламу на сайте

29-01-2017 10:34 Шведские стволы Скачать торрент  

Сериал кайфовый.pb.wtf



02-02-2017 17:33 Шведские стволы Скачать торрент  

+6pb.wtf



01-05-2017 08:47 Шведские стволы Скачать торрент  

добавлены все серииpb.wtf



    Дорогой пользователь! Огромная просьба, поблагодарите релизера, оцените раздачу и оставьте свои комментарий, если Вы скачали Шведские стволы через торрент бесплатно! Внесите свою лепту в развитие PiratBit!
    Комментировать посты могут только пользователи прошедшие не сложную регистрацию
    Показать сообщения:    

    Шведские стволы через торрент
    Скачать бесплатно Шведские стволы
    Шведские стволы скачать торрент
    Шведские стволы смотреть онлайн
    Cкачать фильм Шведские стволы бесплатно
    Шведские стволы скачать торрент в хорошем качестве
    Шведские стволы смотреть онлайн бесплатно в хорошем качестве


    Вы не можете начинать темы
    Вы не можете отвечать на сообщения
    Вы не можете редактировать свои сообщения
    Вы не можете удалять свои сообщения
    Вы не можете голосовать в опросах
    Вы не можете прикреплять файлы к сообщениям
    Вы можете скачивать файлы