Ссылка на приватное зеркало нашего сайта всего за 1$. Внимание количество ограничено!!!

2 сезон

iTunes

1 сезон

1

2 сезон

2 сезон

iTunes

1 сезон

RePack

30

Ultimate

ВАЖНО

ИГРА 18+

pack

RePack

MK11
pack

Забери бонус

RePack

jed

!!Акция!!

Alien_Rage

RePack

fifa19

RePack

Assassins Creed: Odyssey

RePack

NEED FOR SPEED™ PAYBACK

4 сезон

9 сезон

Бесстыжие 9 сезон

Все сериалы

все сериалы на PB.wtf

RePack

FAR CRY 5
  

Человек в высоком замке / The Man in the High Castle / Сезон: 2 / Серии: 1-10 (10) (Дэвид Семел) [2016, фантастика, триллер, драма, WEBRip 2160p] [MVO] (Jaskier) pb.wtf

Человек в высоком замке через торрент pb.wtf

Размер: 89.09 GB | Добавлен: 3 года 9 мес. назад | Торрент скачан:14 раз
Скачать  

29-01-2017 15:03 Человек в высоком замке Скачать торрент  



Человек в высоком замке / The Man in the High Castle


Год выпуска: 2016
Страна: США
Жанр: фантастика, триллер, драма
Продолжительность: 10 x ~ 00:59:00
Перевод: Профессиональный (многоголосый закадровый) [Jaskier]
Субтитры: Английские

Режиссёры: Дэниэл Персивал, Брэд Андерсон, Карин Кусама

В ролях: Алекса Давалос, Руперт Эванс, Люк Клеинтенк, Джоэль де ла Фуэнте, Кэри-Хироюки Тагава, Руфус Сьюэлл, Майкл Рисполи, Джеффри Блейк, Бернхард Форхер

Описание: Германия и Япония выиграли Вторую мировую. Америка разделена пополам между победителями, но, разумеется, спустя много лет после поражения (действие разворачивается в 1962-м) сознательные американцы организуют глубоко засекреченное подполье. Занимаются повстанцы в основном распространением странной кинохроники, на которой показана победа в войне союзнических войск. Именно с этими пленками в руках в нейтральную зону между двумя Америками отправляются Джо и Джулс — юноша и девушка, пробующие свои силы в борьбе с режимом.

Релиз:



Качество: WEBRip 2160p
Формат: MKV
Видео: MPEG-4 AVC, 20.8 Мбит/с, 3840x2160, 23.976 кадр/c
Аудио : 48 kHz, AC3, 3/2 (L,C,R,l,r) + LFE ch, ~384.00 kbps avg |Многоголосый закадровый, LostFilm|
Аудио : 48 kHz, AC3, 3/2 (L,C,R,l,r) + LFE ch, ~640.00 kbps avg

Цитата:

За любезно предоставленный релиз спасибо ULTRAHDCLUB

• Источник: Amazon Instant Video

General
Unique ID : 207115663227065316802104387710889359513 (0x9BD1069942927A35979B26947841F899)
Complete name : E:\The Man in the High Castle [Человек в высоком замке] [Season 2] WEBRip 2160p\The.Man.in.the.High.Castle.S02E01.2160p.Amazon.WEBRip.Rus.Eng.TrollUHD-ULTRAHDCLUB.mkv
Format : Matroska
Format version : Version 4 / Version 2
File size : 8.87 GiB
Duration : 57mn 4s
Overall bit rate : 22.3 Mbps
Movie name : The Man in the High Castle - Season 2, Episode 1: The Tiger's Cave (2017) - Release for ULTRAHDCLUB
Encoded date : UTC 2017-01-05 17:59:05
Writing application : mkvmerge v9.5.0 ('Quiet Fire') 64bit
Writing library : libebml v1.3.4 + libmatroska v1.4.5

Video
ID : 1
Format : AVC
Format/Info : Advanced Video Codec
Format profile : High@L5.1
Format settings, CABAC : Yes
Format settings, ReFrames : 5 frames
Codec ID : V_MPEG4/ISO/AVC
Duration : 57mn 4s
Bit rate : 20.8 Mbps
Width : 3 840 pixels
Height : 2 160 pixels
Display aspect ratio : 16:9
Frame rate mode : Constant
Frame rate : 23.976 fps
Color space : YUV
Chroma subsampling : 4:2:0
Bit depth : 8 bits
Scan type : Progressive
Bits/(Pixel*Frame) : 0.105
Stream size : 8.29 GiB (93%)
Title : The Man in the High Castle - Season 2, Episode 1: The Tiger's Cave (2017) - Release for ULTRAHDCLUB
Writing library : x264 core 148 r2638 7599210
Encoding settings : cabac=1 / ref=5 / deblock=1:-3:-3 / analyse=0x3:0x133 / me=umh / subme=10 / psy=1 / psy_rd=1.00:0.00 / mixed_ref=1 / me_range=48 / chroma_me=1 / trellis=2 / 8x8dct=1 / cqm=0 / deadzone=21,11 / fast_pskip=1 / chroma_qp_offset=-2 / threads=12 / lookahead_threads=2 / sliced_threads=0 / nr=0 / decimate=0 / interlaced=0 / bluray_compat=0 / constrained_intra=0 / bframes=8 / b_pyramid=2 / b_adapt=2 / b_bias=0 / direct=3 / weightb=1 / open_gop=0 / weightp=2 / keyint=240 / keyint_min=23 / scenecut=40 / intra_refresh=0 / rc_lookahead=60 / rc=crf / mbtree=1 / crf=17.0 / qcomp=0.70 / qpmin=0 / qpmax=69 / qpstep=4 / vbv_maxrate=300000 / vbv_bufsize=300000 / crf_max=0.0 / nal_hrd=none / filler=0 / ip_ratio=1.40 / aq=1:0.70
Language : English
Default : Yes
Forced : No

Audio #1
ID : 2
Format : AC-3
Format/Info : Audio Coding 3
Mode extension : CM (complete main)
Format settings, Endianness : Big
Codec ID : A_AC3
Duration : 57mn 4s
Bit rate mode : Constant
Bit rate : 384 Kbps
Channel(s) : 6 channels
Channel positions : Front: L C R, Side: L R, LFE
Sampling rate : 48.0 KHz
Compression mode : Lossy
Stream size : 157 MiB (2%)
Title : AC3 5.1 @ 384 kbps - MVO, Jaskier
Language : Russian
Default : Yes
Forced : No

Audio #2
ID : 3
Format : E-AC-3
Format/Info : Audio Coding 3
Format settings, Endianness : Big
Codec ID : A_EAC3
Duration : 57mn 4s
Bit rate mode : Constant
Bit rate : 640 Kbps
Channel(s) : 6 channels
Channel positions : Front: L C R, Side: L R, LFE
Sampling rate : 48.0 KHz
Compression mode : Lossy
Stream size : 261 MiB (3%)
Title : E-AC3 5.1 @ 640 kbps
Language : English
Default : No
Forced : No

Text #1
ID : 4
Format : UTF-8
Codec ID : S_TEXT/UTF8
Codec ID/Info : UTF-8 Plain Text
Language : English
Default : No
Forced : No

Text #2
ID : 5
Format : UTF-8
Codec ID : S_TEXT/UTF8
Codec ID/Info : UTF-8 Plain Text
Title : SDH
Language : English
Default : No
Forced : No
pb.wtf



Скачать Человек в высоком замке через торрент http://i76.fastpic.ru/big/2015/1212/77/c961260002bd04bd9c218b7473eb0477.jpg Скачать фильм Человек в высоком замке через торрент бесплантно в хорошем качестве Описание: Германия и Япония выиграли Вторую мировую. Америка разделена пополам между победителями, но, разумеется, спустя много лет после ... 7 10 3
Торрент: Зарегистрирован [2017-01-29 15:03] · скачан: 14 раз
Статус: √ проверено
Размер: 89.09 GB
Как cкачать? Как скачать Человек в высоком замке через торрент | qTorrent

% Раздел Тема Автор DL S | L
Фильмы с украинским озвучиванием [ 90.08 GB ] Человек в высоком замке / The Man in the High Castle / Сезон: 2 / Серии: 1-10 из 10 [2016 WEBRip 2160p] [Ukr MVO] killermax2013 Скачать
1 | 0
Зарубежные сериалы [ 7.42 GB ] Человек в высоком замке / The Man in the High Castle / Сезон 2 / Серии 1-10 из 10 [2016 WEBRip] MVO [NewStudio] bober100 Скачать
1 | 0
Зарубежные сериалы [ 6.95 GB ] Человек в высоком замке / The Man in the High Castle / Сезон: 2 / Серии: 1-10 [2016 WEBRip] [MVO] killermax2013 Скачать
1 | 0
Фильмы с украинским озвучиванием [ 8.72 GB ] Человек в высоком замке / The Man in the High Castle / Сезон: 2 / Серии: 1-10 [2016 WEBRip] [Ukr MVO] killermax2013 Скачать
1 | 0
Зарубежные сериалы [ 48.67 GB ] Человек в высоком замке / The Man in the High Castle / Сезон: 2 / Серии: 1-10 [2016 WEBRip 1080p] [MVO] killermax2013 Скачать
1 | 0
Зарубежные сериалы [ 14.07 GB ] Человек в высоком замке / The Man in the High Castle / Сезон: 2 / Серии: 1-10 [2016 WEBRip 720p] [MVO] killermax2013 Скачать
1 | 0
Зарубежные сериалы [ 49.67 GB ] Человек в высоком замке / The Man in the High Castle / Сезон: 2 / Серии: 1-10 [2016 WEBRip 1080p] [MVO] killermax2013 Скачать
1 | 0

28-11-2019 20:33  

Отключить всю рекламу на сайте

    Дорогой пользователь! Огромная просьба, поблагодарите релизера, оцените раздачу и оставьте свои комментарий, если Вы скачали Человек в высоком замке через торрент бесплатно! Внесите свою лепту в развитие PiratBit!
    Комментировать посты могут только пользователи прошедшие не сложную регистрацию
    Показать сообщения:    

    Человек в высоком замке через торрент
    Скачать бесплатно Человек в высоком замке
    Человек в высоком замке скачать торрент
    Человек в высоком замке смотреть онлайн
    Cкачать фильм Человек в высоком замке бесплатно
    Человек в высоком замке скачать торрент в хорошем качестве
    Человек в высоком замке смотреть онлайн бесплатно в хорошем качестве


    Вы не можете начинать темы
    Вы не можете отвечать на сообщения
    Вы не можете редактировать свои сообщения
    Вы не можете удалять свои сообщения
    Вы не можете голосовать в опросах
    Вы не можете прикреплять файлы к сообщениям
    Вы можете скачивать файлы