Ссылка на приватное зеркало нашего сайта всего за 1$. Внимание количество ограничено!!!

2 сезон

iTunes

1 сезон

1

2 сезон

2 сезон

iTunes

1 сезон

RePack

30

Новинка

ВАЖНО

ИГРА 18+

pack

RePack

MK11
pack

Забери бонус

RePack

jed

!!Акция!!

Alien_Rage

RePack

fifa19

RePack

Assassins Creed: Odyssey

RePack

NEED FOR SPEED™ PAYBACK

4 сезон

9 сезон

Бесстыжие 9 сезон

Все сериалы

все сериалы на PB.wtf

RePack

FAR CRY 5
  

Древние / Первородные / The originals / 1 сезон / 1-22 серии из 22 (Крис Крисмер) [2013, мистика, фантастика, боевик, драма, приключения, WEB-DLRip] DVO [Кубик в Кубе] pb.wtf

Древние через торрент pb.wtf

Размер: 12.82 GB | Добавлен: 3 года 10 мес. назад | Торрент скачан:46 раз
Скачать  

29-01-2017 20:49 Древние Скачать торрент  

Древние / Первородные / The originals
Год выпуска: 2013
Страна: США
Жанр: мистика, фантастика, боевик, драма, приключения
Всего серий: 22
Продолжительность: 22 x ~ 00:45:00
Перевод: Профессиональный (двухголосый) [Кубик в Кубе]
Субтитры: Русские, английские

Режиссер: Крис Крисмер

rating

В ролях:

Клер Холт, Джозеф Морган, Дэниэл Гиллис, Чарльз Майкл Дэвис, Каллард Харрис, Александра Фикен, Даниэль Кэмпбелл, Эка Дарвилл, Даниэлла Пинеда, Леа Пайпс

Описание:

Сила — в семье. Семья Древнейших дала зарок тысячу лет назад: они торжественно поклялись держаться друг друга, вместе и навсегда. И вот, сотни лет спустя семейные узы оказались разрушены. Время, трагедия и жажда власти отдалили членов Древнейшего семейства друг от друга. Когда Клаус Майклсон, древнейший гибрид вампира и вервульфа, получает загадочное предупреждение о зреющем против него во Французском квартале Нового Орлеана заговоре, он возвращается в город, который когда-то помогала строить его семья. На вопросы Клауса, вероятно, сможет ответить его бывший протеже Марсель, жестокий и харизматичный вампир, полностью подчинивший своей воле всех людей и сверхъестественных жителей Нового Орлеана. В надежде помочь брату обрести искупление Элайджа следует за Клаусом в Новый Орлеан. Вскоре он обнаруживает, что в поисках информации о своей семье во Французский квартал приезжает и тут же оказывается в руках могущественной ведьмы Софи оборотень Хейли. Пока Марсель отдаёт приказы верноподданным и наслаждается безграничной властью, напряжение между сверхъестественными группировками приближается к точке кипения. Для Клауса подчиниться воле могущественного протеже — немыслимо, и он клянётся вернуть себе обратно то, что однажды принадлежало ему: Влacть, город, семью. В ожидании решения, которое должна принять Ребекка, покинуть или нет Мистик Фоллс ради братьев и Нового Орлеана, Клаус и Элайджа создают хрупкий альянс с ведьмами, дабы быть уверенными, что Новым Орлеаном вновь будут править ДРЕВНЕЙШИЕ.

Качество: WEB-DLRip
Формат: AVI
Видео кодек: XviD
Аудио кодек: MP3

Видео: 720x400 (1.80:1), 23.976 fps, XviD build 50 ~1498 kbps avg, 0.22 bit/pixel
Аудио#1: RUS: 48 kHz, MPEG Layer 3, 2 ch, ~224.00 kbps avg
Аудио#2: ENG: 48 kHz, MPEG Layer 3, 2 ch, ~224.00 kbps avg
Общее
Полное имя : C:The Originals WEB-DLrip (1 сезон, Кубик в Кубе)\The.Originals.S01E01[Kubik_v_Kube]&[MEKC.INFO].PROPER.avi
Формат : AVI
Формат/Информация : Audio Video Interleave
Размер файла : 606 Мбайт
Продолжительность : 42 м. 33 с.
Общий поток : 1992 Кбит/сек
Программа кодирования : VirtualDubMod 1.5.10.2 (build 2540/release)
Библиотека кодирования : VirtualDubMod build 2540/release

Видео
Идентификатор : 0
Формат : MPEG-4 Visual
Профиль формата : Advanced Simple@L5
Параметр BVOP формата : 1
Параметр QPel формата : Нет
Параметр GMC формата : Без точки перехода
Параметр матрицы формата : Default (MPEG)
Идентификатор кодека : XVID
Идентификатор кодека/Подсказка : XviD
Продолжительность : 42 м. 33 с.
Битрейт : 1530 Кбит/сек
Ширина : 720 пикселей
Высота : 400 пикселей
Соотношение сторон : 16:9
Частота кадров : 23,976 (23976/1000) кадра/сек
Цветовое пространство : YUV
Субдискретизация насыщенности : 4:2:0
Битовая глубина : 8 бит
Тип развёртки : Прогрессивная
Метод сжатия : С потерями
Бит/(Пиксели*Кадры) : 0.222
Размер потока : 466 Мбайт (77%)
Библиотека кодирования : XviD 1.2.1 (UTC 2008-12-04)

Аудио #1
Идентификатор : 1
Формат : MPEG Audio
Версия формата : Version 1
Профиль формата : Layer 3
Идентификатор кодека : 55
Идентификатор кодека/Подсказка : MP3
Продолжительность : 42 м. 33 с.
Вид битрейта : Постоянный
Битрейт : 224 Кбит/сек
Каналы : 2 канала
Частота : 48,0 КГц
Метод сжатия : С потерями
Размер потока : 68,2 Мбайт (11%)
Выравнивание : Соединение по промежуткам
Продолжительность промежутка : 42 мс. (1,00 видеокадр)
Время предзагрузки промежутка : 504 мс.

Аудио #2
Идентификатор : 2
Формат : MPEG Audio
Версия формата : Version 1
Профиль формата : Layer 3
Режим : Joint stereo
Расширение режима : MS Stereo
Идентификатор кодека : 55
Идентификатор кодека/Подсказка : MP3
Продолжительность : 42 м. 33 с.
Вид битрейта : Постоянный
Битрейт : 224 Кбит/сек
Каналы : 2 канала
Частота : 48,0 КГц
Метод сжатия : С потерями
Размер потока : 68,2 Мбайт (11%)
Выравнивание : Соединение по промежуткам
Продолжительность промежутка : 42 мс. (1,00 видеокадр)
Время предзагрузки промежутка : 504 мс.
Библиотека кодирования : LAME3.99r
Настройки программы : -m j -V 4 -q 3 -lowpass 19.4 -b 224

Общее
Полное имя : C:The Originals WEB-DLrip (1 сезон, Кубик в Кубе)\Rus sub\The.Originals.S01E01[Kubik_v_Kube]&[MEKC.INFO].PROPER.srt
Формат : SubRip
Размер файла : 50,2 Кбайт

Общее
Полное имя : C:The Originals WEB-DLrip (1 сезон, Кубик в Кубе)\Eng sub\The.Originals.S01E01[Kubik_v_Kube]&[MEKC.INFO].PROPER.srt
Формат : SubRip
Размер файла : 52,6 Кбайт
скриншот   скриншот   скриншот   скриншот  
pb.wtf



Скачать Древние через торрент http://pic1.kartinco.top/images/11/hp25o.jpg Скачать фильм Древние через торрент бесплантно в хорошем качестве Описание: Сила — в семье. Семья Древнейших дала зарок тысячу лет назад: они торжественно поклялись держаться друг друга, вместе и навсегда. ... 10 10 7
Торрент: Зарегистрирован [2017-01-29 20:49] · скачан: 46 раз
Статус: √ проверено
Размер: 12.82 GB
Как cкачать? Как скачать Древние через торрент | qTorrent

% Раздел Тема Автор DL S | L
Зарубежные сериалы [ 2.74 GB ] Древние / Первородные /The Originals / Сезон: 2 / Серии 1-7 из 22 [2014 WEB-DLRip] MVO - LostFilm Anonymous Скачать
1 | 0
Зарубежные сериалы [ 1.16 GB ] Древние / Первородные /The Originals / Сезон: 2 / Серии 1-2 из 22 [2014 WEB-DLRip] MVO [BaibaKo] GEKADOL Скачать
1 | 0

28-11-2019 20:33  

Отключить всю рекламу на сайте

    Дорогой пользователь! Огромная просьба, поблагодарите релизера, оцените раздачу и оставьте свои комментарий, если Вы скачали Древние через торрент бесплатно! Внесите свою лепту в развитие PiratBit!
    Комментировать посты могут только пользователи прошедшие не сложную регистрацию
    Показать сообщения:    

    Древние через торрент
    Скачать бесплатно Древние
    Древние скачать торрент
    Древние смотреть онлайн
    Cкачать фильм Древние бесплатно
    Древние скачать торрент в хорошем качестве
    Древние смотреть онлайн бесплатно в хорошем качестве


    Вы не можете начинать темы
    Вы не можете отвечать на сообщения
    Вы не можете редактировать свои сообщения
    Вы не можете удалять свои сообщения
    Вы не можете голосовать в опросах
    Вы не можете прикреплять файлы к сообщениям
    Вы можете скачивать файлы