2 сезон

iTunes

MVO

1

2 сезон

iTunes

iTunes

1 сезон

RePack

30

Новинка

ВАЖНО

ИГРА 18+

pack

RePack

MK11
pack

Легкие деньги

RePack

jed

RePack

fifa19

RePack

RDR2

RePack

NEED FOR SPEED™ PAYBACK

4 сезон

9 сезон

Бесстыжие 9 сезон

Все сериалы

все сериалы на PB.wtf

RePack

FAR CRY 5

Anonymous, добрый вечер, мы не успеваем собрать деньги на оплату серверов за декабрь и январь, помогите нам пожалуйста в это трудное время. В качестве благодарности мы отключим Вам всю рекламу на сайте (укажите свой ник в строку Ваше имя)!

×
  
Magnet ссылка

Дорога к звездам (Павел Клушанцев) [1957, СССР, документальный, фантастика, DVDRip от AVP Studio] pb.wtf

Дорога к звездам через торрент pb.wtf

Размер: 746 MB | Добавлен: 3 года 11 мес. назад | Торрент скачан:21 раз
Скачать  

30-01-2017 08:38 Дорога к звездам Скачать торрент  

Дорога к звездам
Страна: СССР
Производство: Ленинградская киностудия научно-популярных фильмов

Жанр: документальный, фантастика
Год выпуска: 1957
Продолжительность: 00:49:00

Перевод: Не требуется
Cубтитры: нет
Оригинальная аудиодорожка: русский

Режиссер: Павел Клушанцев

В ролях:
Георгий Соловьёв, Георгий Кульбуш, А. Шутко, Дмитрий Шатров, Г. Бахмацкий...
Об актёрах подробней

Описание:
Трудный путь познания прошёл на своей планете человек, он всегда стремился проникнуть туда, где ещё не был, узнать то, что ещё не знал. Несмотря на смертельную опасность, отправлялся он в далёкие плавания, штурмовал полюса, поднимался за облака, опускался в морскую пучину. Преодолевая бесчисленные трудности, находил он пути к самым сокровенным тайникам природы, проник в недра живой клетки и атома. Он стремится разгадать тайны Вселенной, осознать самого себя. Но не разу ещё не отрывался человек от своей планеты. И вот наступило время, когда он сделал первый шаг за порог своего дома.

Источник: DVD5 R5
Качество видео: DVDRip
Формат видео: AVI

Видео: 704x528 (4:3), 25 fps, XviD ~ 1926 kbps avg, 0.207 bit/pixel
Аудио: 48 kHz, Dolby Digital AC3 2.0, 192 kbps

Раздача от:
Общее
Полное имя : Doroga.k.zvezdam.1957.DVDRip_[New-team]_by_AVP_Studio.avi
Формат : AVI
Формат/Информация : Audio Video Interleave
Размер файла : 746 Мбайт
Продолжительность : 49 м. 0 с.
Общий поток : 2128 Кбит/сек
Программа кодирования : VirtualDubMod 1.5.10.3 | www.virtualdub-fr.org || (build 2550/release)
Библиотека кодирования : VirtualDubMod build 2550/release

Видео
Идентификатор : 0
Формат : MPEG-4 Visual
Профиль формата : Advanced Simple@L5
Параметр BVOP формата : 1
Параметр QPel формата : Нет
Параметр GMC формата : Без точки перехода
Параметр матрицы формата : Выборочная
Идентификатор кодека : XVID
Идентификатор кодека/Подсказка : XviD
Продолжительность : 49 м. 0 с.
Битрейт : 1926 Кбит/сек
Ширина : 704 пикселя
Высота : 528 пикселей
Соотношение сторон : 4:3
Частота кадров : 25,000 кадров/сек
Цветовое пространство : YUV
Субдискретизация насыщенности : 4:2:0
Битовая глубина : 8 бит
Тип развёртки : Прогрессивная
Метод сжатия : С потерями
Бит/(Пиксели*Кадры) : 0.207
Размер потока : 675 Мбайт (91%)
Библиотека кодирования : XviD 73

Аудио
Идентификатор : 1
Формат : AC-3
Формат/Информация : Audio Coding 3
Расширение режима : CM (complete main)
Параметр Endianness формата : Big
Идентификатор кодека : 2000
Продолжительность : 49 м. 0 с.
Вид битрейта : Постоянный
Битрейт : 192 Кбит/сек
Каналы : 2 канала
Расположение каналов : Front: L R
Частота : 48,0 КГц
Частота кадров : 31,250 кадров/сек (1536 spf)
Битовая глубина : 16 бит
Метод сжатия : С потерями
Размер потока : 67,3 Мбайт (9%)
Выравнивание : Разделение по промежуткам
Продолжительность промежутка : 40 мс. (1,00 видеокадр)
Время предзагрузки промежутка : 500 мс
pb.wtf



Скачать Дорога к звездам через торрент http://s020.radikal.ru/i708/1701/4e/ada5e21868d4.png Скачать фильм Дорога к звездам через торрент бесплантно в хорошем качестве Описание:Трудный путь познания прошёл на своей планете человек, он всегда стремился проникнуть туда, где ещё не был, узнать то, что ещё не ... 5 10 1
Info! Золотая раздача, скачанное не засчитывается.
Торрент: Зарегистрирован [2017-01-30 08:38] · скачан: 21 раз
Статус: √ проверено
Размер: 746 MB
Как cкачать? Как скачать Дорога к звездам через торрент | UTorrent

% Раздел Тема Автор DL S | L
Разное [ 623 MB ] Владимир Кунин - ИнтерКыся. Дорога к звездам [Александр Клюквин 2018 64 kbps MP3] bober100 Скачать
1 | 0
Космос [ 745 MB ] Дорога к звездам [1957 СССР документальный DVDRip-AVC от AVP Studio] AVP Studio Скачать
1 | 0

28-11-2019 20:33  

Отключить всю рекламу на сайте

    Дорогой пользователь! Огромная просьба, поблагодарите релизера, оцените раздачу и оставьте свои комментарий, если Вы скачали Дорога к звездам через торрент бесплатно! Внесите свою лепту в развитие PiratBit!
    Комментировать посты могут только пользователи прошедшие не сложную регистрацию
    Показать сообщения:    

    Дорога к звездам через торрент
    Скачать бесплатно Дорога к звездам
    Дорога к звездам скачать торрент
    Дорога к звездам смотреть онлайн
    Cкачать фильм Дорога к звездам бесплатно
    Дорога к звездам скачать торрент в хорошем качестве
    Дорога к звездам смотреть онлайн бесплатно в хорошем качестве


    Вы не можете начинать темы
    Вы не можете отвечать на сообщения
    Вы не можете редактировать свои сообщения
    Вы не можете удалять свои сообщения
    Вы не можете голосовать в опросах
    Вы не можете прикреплять файлы к сообщениям
    Вы можете скачивать файлы