Ссылка на приватное зеркало нашего сайта всего за 1$. Внимание количество ограничено!!!

2 сезон

iTunes

1 сезон

1

2 сезон

2 сезон

iTunes

1 сезон

RePack

30

Ultimate

ВАЖНО

ИГРА 18+

pack

RePack

MK11
pack

Забери бонус

RePack

jed

!!Акция!!

Alien_Rage

RePack

fifa19

RePack

Assassins Creed: Odyssey

RePack

NEED FOR SPEED™ PAYBACK

4 сезон

9 сезон

Бесстыжие 9 сезон

Все сериалы

все сериалы на PB.wtf

RePack

FAR CRY 5
  

Молодой Папа / The Young Pope / Сезон 1 / Серии 1-10 из 10 (Паоло Соррентино) [2016, драма, BDRip 1080p] [DVO] (Кубик в кубе) pb.wtf

Молодой Папа через торрент pb.wtf

Качают: 1 [ 0 KB/s ]
Размер: 40.76 GB | Добавлен: 3 года 9 мес. назад | Торрент скачан:160 раз
Скачать  

30-01-2017 08:48 Молодой Папа Скачать торрент  

Молодой Папа / The Young Pope Год выпуска: 2016
Страна: Италия Франция Испания Великобритания США
Производство: Canal+ [fr], Haut et Court TV, HBO, Mediapro, Sky Italia, Wildside Media
Сезон: 1
Жанр: драма
Продолжительность: 10х ~00:55:00
Перевод: Профессиональный (двухголосый) [Кубик в Кубе]
Субтитры: нет

Режиссер: Паоло Соррентино

Авторы сценария: Умберто Контарелло, Тони Гризони, Стефано Рулли

В ролях: Джуд Лоу, Дайан Китон, Сильвио Орландо, Скотт Шеперд, Сесиль Де Франс, Хавьер Камара, Людивин Санье, Тони Берторелли, Джеймс Кромуэлл

Описание: История италоамериканца Ленни Белардо, избранного папой римским Пием XIII. Ленни — сложный человек, который ведёт себя эксцентрично, а иногда и пугающе, и действия его на посту папы предугадать не так-то просто, отчего кардиналы плетут свои интриги против него...



Качество: BDRip 1080p
Формат: МКV
Видео кодек: AVC
Аудио кодек: DTS
Видео: 1920x1080 (16:9), 25.000 fps, MPEG-4 AVC ~8444 Kbps
Аудио №1: 48.0 kHz, Digital Theater Systems, 3/2 (L,C,R,l,r) + LFE ch, ~768 kbps | DVO
Аудио №2: 48.0 kHz, Digital Theater Systems, 3/2 (L,C,R,l,r) + LFE ch, ~1509 kbps | ENG
CasStudio, Работа со звуком: messafan
General
Unique ID : 173257611034576970697537296055502175749 (0x825833BE08DF95E7B6BB927C88F0FE05)
Complete name : E:\The.Young.Pope.S01.1080p.BluRay.KvK.CasStudio.TV\The.Young.Pope.S01E01.1080p.BluRay.KvK.CasStudio.TV.mkv
Format : Matroska
Format version : Version 4 / Version 2
File size : 4.09 GiB
Duration : 54mn 35s
Overall bit rate : 10.7 Mbps
Movie name : The Young Pope 01x01 - release by messafan for CasStudio.TV
Encoded date : UTC 2016-12-10 14:29:54
Writing application : mkvmerge v6.7.0 ('Back to the Ground') 64bit built on Jan 8 2014 15:10:52
Writing library : libebml v1.3.0 + libmatroska v1.4.1

Video
ID : 1
Format : AVC
Format/Info : Advanced Video Codec
Format profile : High@L4.1
Format settings, CABAC : Yes
Format settings, ReFrames : 4 frames
Codec ID : V_MPEG4/ISO/AVC
Duration : 54mn 35s
Bit rate : 8 444 Kbps
Width : 1 920 pixels
Height : 1 080 pixels
Display aspect ratio : 16:9
Frame rate mode : Constant
Frame rate : 25.000 fps
Color space : YUV
Chroma subsampling : 4:2:0
Bit depth : 8 bits
Scan type : Progressive
Bits/(Pixel*Frame) : 0.163
Stream size : 3.14 GiB (77%)
Title : the.young.pope.s01e01.multi.1080p.bluray.x264-sh0w
Writing library : x264 core 148 r2721 72d53ab
Encoding settings : cabac=1 / ref=4 / deblock=1:-2:-2 / analyse=0x3:0x113 / me=umh / subme=8 / psy=1 / psy_rd=1.00:0.00 / mixed_ref=1 / me_range=16 / chroma_me=1 / trellis=2 / 8x8dct=1 / cqm=0 / deadzone=21,11 / fast_pskip=0 / chroma_qp_offset=-2 / threads=12 / lookahead_threads=2 / sliced_threads=0 / nr=0 / decimate=1 / interlaced=0 / bluray_compat=0 / constrained_intra=0 / bframes=3 / b_pyramid=2 / b_adapt=1 / b_bias=0 / direct=3 / weightb=1 / open_gop=0 / weightp=2 / keyint=250 / keyint_min=25 / scenecut=40 / intra_refresh=0 / rc_lookahead=50 / rc=2pass / mbtree=1 / bitrate=8444 / ratetol=1.0 / qcomp=0.60 / qpmin=0 / qpmax=69 / qpstep=4 / cplxblur=20.0 / qblur=0.5 / ip_ratio=1.40 / aq=1:1.00
Default : Yes
Forced : No

Audio #1
ID : 2
Format : DTS
Format/Info : Digital Theater Systems
Mode : 16
Format settings, Endianness : Big
Codec ID : A_DTS
Duration : 54mn 35s
Bit rate mode : Constant
Bit rate : 768 Kbps
Channel(s) : 6 channels
Channel positions : Front: L C R, Side: L R, LFE
Sampling rate : 48.0 KHz
Bit depth : 16 bits
Compression mode : Lossy
Stream size : 300 MiB (7%)
Title : KvK DTS 5.1 @ 768kbps
Language : Russian
Default : Yes
Forced : No

Audio #2
ID : 3
Format : DTS
Format/Info : Digital Theater Systems
Mode : 16
Format settings, Endianness : Big
Codec ID : A_DTS
Duration : 54mn 35s
Bit rate mode : Constant
Bit rate : 1 509 Kbps
Channel(s) : 6 channels
Channel positions : Front: L C R, Side: L R, LFE
Sampling rate : 48.0 KHz
Bit depth : 24 bits
Compression mode : Lossy
Stream size : 589 MiB (14%)
Title : English DTS 5.1 @ 1509kbps
Language : English
Default : No
Forced : No

Menu
00:00:00.000 : fr:Chapter 1
00:05:55.039 : fr:Chapter 2
00:16:39.680 : fr:Chapter 3
00:25:07.840 : fr:Chapter 4
00:31:30.480 : fr:Chapter 5
00:42:44.560 : fr:Chapter 6
pb.wtf



Скачать Молодой Папа через торрент http://i90.fastpic.ru/big/2017/0130/d3/a1c45b5685c52d2847964091e5903dd3.jpg Скачать фильм Молодой Папа через торрент бесплантно в хорошем качестве Описание: История италоамериканца Ленни Белардо, избранного папой римским Пием XIII. Ленни — сложный человек, который ведёт себя ... 10 10 4
Info! Золотая раздача, скачанное не засчитывается.
Торрент: Зарегистрирован [2017-01-30 08:48] · скачан: 160 раз
Статус: √ проверено
Размер: 40.76 GB
Как cкачать? Как скачать Молодой Папа через торрент | qTorrent

% Раздел Тема Автор DL S | L
Зарубежные сериалы [ 7.26 GB ] Молодой Папа / The Young Pope / Сезон: 1 / Серии: 1-10 из 10 [2016 BDRip] DUB [Кравец-Рекордз / Че!] +MVO [Greb & CGC / Amedia] bober100 Скачать
1 | 0
Зарубежные сериалы [ 7.31 GB ] Молодой Папа / The Young Pope / Сезон: 1 / Серии: 1-10 из 10 [2016 HDRip] killermax2013 Скачать
1 | 0
Зарубежные сериалы [ 7.1 GB ] Молодой Папа / The Young Pope / Сезон: 1 / Серии: 1-10 из 10 [2016 HDRip] [MVO] killermax2013 Скачать
2 | 0
Зарубежные сериалы [ 10.6 GB ] Молодой Папа / The Young Pope / Сезон: 1 / Серии: 1-10 из 10 [2016 HDRip-AVC] DVO [Кубик в кубе] bober100 Скачать
2 | 0
Зарубежные сериалы [ 41.38 GB ] Молодой Папа / The Young Pope / Сезон 1 / Серии 1-10 из 10 [2016 BDRip 1080p] 4x[MVO] + killermax2013 Скачать
1 | 1
Зарубежные сериалы [ 8.54 GB ] Молодой Папа / The Young Pope / Сезон 1 / Серии 1-10 из 10 [2016 HDTVRip 720p] [MVO] killermax2013 Скачать
1 | 0
Зарубежные сериалы [ 11.6 GB ] Молодой Папа / The Young Pope / Сезон 1 / Серии 1-10 из 10 [2016 HDRip] [DVO] killermax2013 Скачать
1 | 0

28-11-2019 20:33  

Отключить всю рекламу на сайте

    Дорогой пользователь! Огромная просьба, поблагодарите релизера, оцените раздачу и оставьте свои комментарий, если Вы скачали Молодой Папа через торрент бесплатно! Внесите свою лепту в развитие PiratBit!
    Комментировать посты могут только пользователи прошедшие не сложную регистрацию
    Показать сообщения:    

    Молодой Папа через торрент
    Скачать бесплатно Молодой Папа
    Молодой Папа скачать торрент
    Молодой Папа смотреть онлайн
    Cкачать фильм Молодой Папа бесплатно
    Молодой Папа скачать торрент в хорошем качестве
    Молодой Папа смотреть онлайн бесплатно в хорошем качестве


    Вы не можете начинать темы
    Вы не можете отвечать на сообщения
    Вы не можете редактировать свои сообщения
    Вы не можете удалять свои сообщения
    Вы не можете голосовать в опросах
    Вы не можете прикреплять файлы к сообщениям
    Вы можете скачивать файлы