Ссылка на приватное зеркало нашего сайта всего за 1$. Внимание количество ограничено!!!

2 сезон

iTunes

1 сезон

1

2 сезон

2 сезон

iTunes

1 сезон

RePack

30

Ultimate

ВАЖНО

ИГРА 18+

pack

RePack

MK11
pack

Забери бонус

RePack

jed

!!Акция!!

Alien_Rage

RePack

fifa19

RePack

Assassins Creed: Odyssey

RePack

NEED FOR SPEED™ PAYBACK

4 сезон

9 сезон

Бесстыжие 9 сезон

Все сериалы

все сериалы на PB.wtf

RePack

FAR CRY 5
  

Доктор Шанс / Чанс / Chance / 1 сезон / 1-10 серии из 10 (Александра Каннингэм, Кем Нанн) [2016, психологический триллер, HDTVRip] MVO [Кравец] pb.wtf

Доктор Шанс через торрент pb.wtf

Размер: 4.18 GB | Добавлен: 3 года 10 мес. назад | Торрент скачан:72 раза
Скачать  

30-01-2017 20:00 Доктор Шанс Скачать торрент  

Доктор Шанс / Чанс / ChanceГод выпуска: 2016
Страна: США
Жанр: психологический триллер
Всего серий: 10
Продолжительность: 10 х ~ 00:45:00
Перевод: Профессиональный (многоголосый) [Кравец]
Субтитры: отсутствуют

Режиссер: Александра Каннингэм, Кем Нанн

rating

В ролях:

Хью Лори, Захари Калбертсон, Том О'Рейли, Джеймс Д. Уэстон II, Пол Адельштейн

Описание:

Судебный психоневролог невольно оказывается вовлечен в жестокий и опасный мир ошибочного установления личности, коррупции в полиции и психического заболевания.

Качество: HDTVRip
Формат: AVI
Видео кодек: XviD
Аудио кодек: MP3

Видео: 720x400 (1.80:1), 23.810 fps, XviD build 64 ~1050 kbps avg, 0.16 bit/pixel
Аудио#1: 48 kHz, MPEG Layer 3, 2 ch, ~224.00 kbps avg
Общее
Полное имя : D:\Chance.S01.XviD.Kravec\Chance.S01E01.XviD.Kravec.avi
Формат : AVI
Формат/Информация : Audio Video Interleave
Размер файла : 463 Мбайт
Продолжительность : 50 м. 45 с.
Общий поток : 1275 Кбит/сек
Название фильма : Chance.S01E01-720
Режиссёр : Андрей
Программа кодирования : Lavf55.19.104

Видео
Идентификатор : 0
Формат : xvid
Идентификатор кодека : xvid
Продолжительность : 50 м. 45 с.
Битрейт : 1040 Кбит/сек
Ширина : 720 пикселей
Высота : 400 пикселей
Соотношение сторон : 16:9
Частота кадров : 23,810 кадра/сек
Тип развёртки : Прогрессивная
Бит/(Пиксели*Кадры) : 0.152
Размер потока : 377 Мбайт (82%)
Заголовок : Video Track

Аудио
Идентификатор : 1
Формат : MPEG Audio
Версия формата : Version 1
Профиль формата : Layer 3
Режим : Joint stereo
Идентификатор кодека : 55
Идентификатор кодека/Подсказка : MP3
Продолжительность : 50 м. 20 с.
Вид битрейта : Постоянный
Битрейт : 224 Кбит/сек
Каналы : 2 канала
Частота : 48,0 КГц
Метод сжатия : С потерями
Размер потока : 80,7 Мбайт (17%)
Выравнивание : Соединение по промежуткам
Продолжительность промежутка : 24 мс. (0,58 видеокадр)
Заголовок : Audio Track
скриншот   скриншот   скриншот  
pb.wtf



Скачать Доктор Шанс через торрент http://pic1.kartinco.top/images/11/bwovl.jpg Скачать фильм Доктор Шанс через торрент бесплантно в хорошем качестве Описание: Судебный психоневролог невольно оказывается вовлечен в жестокий и опасный мир ошибочного установления личности, коррупции в ... 10 10 5
Торрент: Зарегистрирован [2017-01-30 20:00] · скачан: 72 раз
Статус: √ проверено
Размер: 4.18 GB
Как cкачать? Как скачать Доктор Шанс через торрент | qTorrent

% Раздел Тема Автор DL S | L
Зарубежные сериалы [ 17.61 GB ] Доктор Ченс / Доктор Шанс / Чанс / Chance / Сезон: 2 / Серии 1-10 из 10 [2016 WEBRip 720p] MVO [BaibaKo] GEKADOL Скачать
1 | 0
Зарубежные сериалы [ 6.17 GB ] Доктор Шанс / Чанс / Chance / Сезон 1 / Серии 1-10 из 10 [2016 WEB-DL 720p] MVO [NewStudio] GEKADOL Скачать
1 | 0

28-11-2019 20:33  

Отключить всю рекламу на сайте

    Дорогой пользователь! Огромная просьба, поблагодарите релизера, оцените раздачу и оставьте свои комментарий, если Вы скачали Доктор Шанс через торрент бесплатно! Внесите свою лепту в развитие PiratBit!
    Комментировать посты могут только пользователи прошедшие не сложную регистрацию
    Показать сообщения:    

    Доктор Шанс через торрент
    Скачать бесплатно Доктор Шанс
    Доктор Шанс скачать торрент
    Доктор Шанс смотреть онлайн
    Cкачать фильм Доктор Шанс бесплатно
    Доктор Шанс скачать торрент в хорошем качестве
    Доктор Шанс смотреть онлайн бесплатно в хорошем качестве


    Вы не можете начинать темы
    Вы не можете отвечать на сообщения
    Вы не можете редактировать свои сообщения
    Вы не можете удалять свои сообщения
    Вы не можете голосовать в опросах
    Вы не можете прикреплять файлы к сообщениям
    Вы можете скачивать файлы