2 сезон

iTunes

1 сезон

1

iTunes

iTunes

iTunes

1 сезон

RePack

30

ИГРА 18+

pack

ВАЖНО

!!Акция!!

Alien_RageХит недели

RePack

MK11
pack

Забери бонус

RePack

jed

!!Акция!!

Alien_Rage

RePack

fifa19

RePack

Assassins Creed: Odyssey

RePack

NEED FOR SPEED™ PAYBACK

4 сезон

9 сезон

Бесстыжие 9 сезон

Все сериалы

все сериалы на PB.wtf

RePack

FAR CRY 5
  

Доктор Анна / Сезон: 1 / Серии: 1-8 из 8 (Юрий Лейзеров) [2016 , мелодрама, HDTVRip] Не требуется [Русский] от R.G.Resident pb.wtf

Доктор Анна через торрент pb.wtf

Размер: 4.38 GB | Добавлен: 3 года 8 мес. назад | Торрент скачан:25 раз
Скачать  

30-01-2017 21:30 Доктор Анна Скачать торрент  

Доктор Анна


Год выпуска: 2016

Страна: Россия
Жанр: мелодрама
Продолжительность: 00:54:00
Перевод: Не требуется [Русский]
Режиссер: Юрий Лейзеров
В ролях:

Карина Андоленко (Анна), Данила Дунаев (Серж), Сергей Пускепалис (Добровольский), Александр Комиссаров (Нельский), Александр Нестеров (Брусман), Семен Лопатин (Слава), Светлана Малюкова (Лена), Олег Масленников-Войтов (Калетный), Олег Кныш (Поляков), Евгения Пресникова (жена Нельского), Роман Синицын (Антон), Андрей Харенко (Петр)
Описание:
Россия. 90-е годы. Страна переживает нелегкие времена, как и ее граждане. На фоне этих исторических событий разворачивается драматическая история молодого талантливого врача Анны Савельевой. Судьба сводит ее с одним из политических лидеров 90-х, харизматичным генералом Добровольским, который избирается в парламент страны. Но их бурному роману не суждено иметь продолжение. Добровольского убивают, а Анна - первая подозреваемая. Она вынуждена бежать из страны, ей помогает влюбленный в нее французский журналист Серж. В России остается вся жизнь Анны, ее любимое дело, родные и близкие. Но она обязательно вернется и отомстит всем, кто отобрал у нее жизнь, имя и счастье. А заодно обретет настоящую любовь.

Качество: HDTVRip Rip by ruslanishe
Формат: AVI
Видео: 720x400 (1.80:1), 25 fps, XviD build 65 ~1244 kbps avg, 0.17 bit/pixel
Аудио: русский / 48 kHz, AC3 Dolby Digital, 2/0 (L,R) ch, ~192.00 kbps avg

General
Doktor.Anna.XviD.2017.HDTVRip.R.G.Resident\001.avi
Format : AVI
Format/Info : Audio Video Interleave
File size : 560 MiB
Duration : 54mn 8s
Overall bit rate : 1 447 Kbps
Director : ruslanishe
Writing application : VirtualDubMod 1.5.10.3 | www.virtualdub-fr.org || (build 2550/release)
Copyright : R.G.Resident

Video
ID : 0
Format : MPEG-4 Visual
Format profile : Advanced Simple@L5
Format settings, BVOP : 2
Format settings, QPel : No
Format settings, GMC : No warppoints
Format settings, Matrix : Custom
Codec ID : XVID
Codec ID/Hint : XviD
Duration : 54mn 8s
Bit rate : 1 245 Kbps
Width : 720 pixels
Height : 400 pixels
Display aspect ratio : 16:9
Frame rate : 25.000 fps
Color space : YUV
Chroma subsampling : 4:2:0
Bit depth : 8 bits
Scan type : Progressive
Compression mode : Lossy
Bits/(Pixel*Frame) : 0.173
Stream size : 482 MiB (86%)
Writing library : XviD 65

Audio
ID : 1
Format : AC-3
Format/Info : Audio Coding 3
Mode extension : CM (complete main)
Format settings, Endianness : Big
Codec ID : 2000
Duration : 54mn 8s
Bit rate mode : Constant
Bit rate : 192 Kbps
Channel(s) : 2 channels
Channel positions : Front: L R
Sampling rate : 48.0 KHz
Bit depth : 16 bits
Compression mode : Lossy
Stream size : 74.4 MiB (13%)
Alignment : Split accross interleaves
Interleave, duration : 40 ms (1.00 video frame)
Interleave, preload duration : 500 ms

© Оформление by White Smoke pb.wtf



Скачать Доктор Анна через торрент http://i3.imageban.ru/out/2017/01/31/61a9da1aed32a82facb46cddf19c2cbc.png Скачать фильм Доктор Анна через торрент бесплантно в хорошем качестве Описание: Россия. 90-е годы. Страна переживает нелегкие времена, как и ее граждане. На фоне этих исторических событий разворачивается ... 6.4 10 5
Info! Золотая раздача, скачанное не засчитывается.
Торрент: Зарегистрирован [2017-02-03 08:38] · скачан: 25 раз
Статус: √ проверено
Размер: 4.38 GB
Как cкачать? Как скачать Доктор Анна через торрент | qTorrent

% Раздел Тема Автор DL S | L
R.G.Resident - Сериалы, Видео [ 5.46 GB ] Доктор Анна / Сезон: 1 / Серии: 1-8 из 8 [2016 HDTVRip-AVC] [Русский] White Smoke Скачать
1 | 0


Последний раз редактировалось: ruslanishe (2017-02-03 22:34), всего редактировалось 12 раз(а)

28-11-2019 20:33  

Отключить всю рекламу на сайте

    Дорогой пользователь! Огромная просьба, поблагодарите релизера, оцените раздачу и оставьте свои комментарий, если Вы скачали Доктор Анна через торрент бесплатно! Внесите свою лепту в развитие PiratBit!
    Комментировать посты могут только пользователи прошедшие не сложную регистрацию
    Показать сообщения:    

    Доктор Анна через торрент
    Скачать бесплатно Доктор Анна
    Доктор Анна скачать торрент
    Доктор Анна смотреть онлайн
    Cкачать фильм Доктор Анна бесплатно
    Доктор Анна скачать торрент в хорошем качестве
    Доктор Анна смотреть онлайн бесплатно в хорошем качестве


    Вы не можете начинать темы
    Вы не можете отвечать на сообщения
    Вы не можете редактировать свои сообщения
    Вы не можете удалять свои сообщения
    Вы не можете голосовать в опросах
    Вы не можете прикреплять файлы к сообщениям
    Вы можете скачивать файлы