2 сезон

iTunes

1 сезон

1

iTunes

iTunes

iTunes

1 сезон

RePack

30

ИГРА 18+

pack

ВАЖНО

!!Акция!!

Alien_RageХит недели

RePack

MK11
pack

Забери бонус

RePack

jed

!!Акция!!

Alien_Rage

RePack

fifa19

RePack

Assassins Creed: Odyssey

RePack

NEED FOR SPEED™ PAYBACK

4 сезон

9 сезон

Бесстыжие 9 сезон

Все сериалы

все сериалы на PB.wtf

RePack

FAR CRY 5
  

Майор и магия / Майор и Ведьма / Сезон: 1 / Серии 1-32 из 32 (Владимир Мельниченко) [2016, Детектив, комедия, криминал, мистика, WEB-DL 720p] pb.wtf

Майор и магия через торрент pb.wtf

Размер: 20.2 GB | Добавлен: 3 года 7 мес. назад | Торрент скачан:52 раза
Скачать  

31-01-2017 04:05 Майор и магия Скачать торрент  

Майор и магия / Майор и Ведьма


  • Год выпуска: 2016
  • Страна: Украина, Компания «Интра» по заказу Пятого канала
  • Жанр: Детектив, комедия, криминал, мистика
  • Продолжительность: 00:39:53 (Серия)
  • Перевод: Не требуется [Русский]
  • Режиссер: Владимир Мельниченко
  • В ролях:

    Константин Самоуков (Антон Амосов, майор), Мария Берсенева (Елена Воробьяшкина, ясновидящая), Евгений Сахаров (Иван Бычков, лейтенант), Константин Войтенко (Павел Воробьяшкин, брат Елены), Олег Примогенов (Альберт Полозков, полковник), Виктория Билан (Ольга Куликова, майор), Вячеслав Довженко (Александр Черняев, капитан), Владимир Николаенко (Лёня, эксперт), Александр Катунин (Сталь Перунов, патологоанатом), Константин Корецкий, Наталия Кудрявцева (Мария Степановна, бабушка Елены Воробьяшкиной, потомственная ведьма), Анна Оброменок


  • Офицер ФСО Антон Амосов проявляет принципиальность и ставит на место обнаглевшего чиновника. Над головой майора сгущаются тучи. Из Москвы его переводят в родной город Рязанск - пока буря не уляжется. Здесь ему приходится работать обычным опером в местном РОВД. Первое задание - арестовать аферистку Елену Воробьяшкину. По дороге у подозреваемой открывается дар предвидения - она предотвращает аварию. Вскоре провидица поступает на службу в полицию и своими «озарениями» помогает Амосову раскрывать самые запутанные дел. Детективный дуэт ждут необычные расследования и личная история на фоне колоритных видов российской глубинки.
  • Рейтинг:



  • Качество: WEB-DL 720p
  • Формат: :MKV
  • Видео кодек: AVC
  • Аудио кодек: AC3
  • Видео: 1524 Кбит/сек, 1280*720 (16:9), в 25,000 кадров/сек, AVC
  • Аудио: 192 Кбит/сек, 44,1 КГц, 16 бит, 2 канала, AC-3
  • Релиз от: Olyanchik

    Внимание! Раздача ведётся путём добавления новых серий; при каждом добавлении создаётся новый торрент. Чтобы начать докачку новой серии, пользователям необходимо сделать следующее:
    (1) остановить скачивание,
    (2) удалить старый торрент у себя из клиента (старые серии удалять не надо),
    (3) скачать новый торрент и запустить его у себя в клиенте вместо старого, при этом указать клиенту путь в старую папку куда и должно происходить скачивание новых серий.
    Ваш клиент при этом должен произвести хеширование (проверку) старой папки (если не производит сам - помогите ему сделать это), и будет докачивать только те серии которых у вас ещё нет. Старые серии при этом не удаляются, а продолжают раздаваться!
    Eсли вы уже удалили старые серии, то предотвратить повторную закачку старых серий можно, отжав галочку в соответсвующих местах при запуске нового торрента. По возможности, желательно не удалять старые серии как можно дольше чтобы релизёр не столько продолжал раздавать старые серии, а смог сконцентрироваться на новых.

    Общее
    Уникальный идентификатор : 218829608253620890527224905024282706840 (0xA4A10CADB2A13579AC029EB853AE4398)
    Полное имя : D:\Фильмы\Майор и магия.2016.WEB-DL (720p).by.Olyanchik\02.Майор и магия.2016.WEB-DL (720p).by.Olyanchik.mkv
    Формат : Matroska
    Версия формата : Version 4 / Version 2
    Размер файла : 489 Мбайт
    Продолжительность : 39 м. 49 с.
    Общий поток : 1718 Кбит/сек
    Дата кодирования : UTC 2017-01-31 20:36:29
    Программа кодирования : mkvmerge v9.6.0 ('Slave To Your Mind') 64bit
    Библиотека кодирования : libebml v1.3.4 + libmatroska v1.4.5

    Видео
    Идентификатор : 1
    Формат : AVC
    Формат/Информация : Advanced Video Codec
    Профиль формата : Main@L3.1
    Параметр CABAC формата : Да
    Параметр ReFrames формата : 3 кадра
    Идентификатор кодека : V_MPEG4/ISO/AVC
    Продолжительность : 39 м. 49 с.
    Битрейт : 1524 Кбит/сек
    Ширина : 1280 пикселей
    Высота : 720 пикселей
    Соотношение сторон : 16:9
    Режим частоты кадров : Постоянный
    Частота кадров : 25,000 кадров/сек
    Цветовое пространство : YUV
    Субдискретизация насыщенности : 4:2:0
    Битовая глубина : 8 бит
    Тип развёртки : Прогрессивная
    Бит/(Пиксели*Кадры) : 0.066
    Размер потока : 434 Мбайт (89%)
    Default : Да
    Forced : Нет
    Цветовой диапазон : Limited
    Основные цвета : BT.709
    Характеристики трансфера : BT.709
    Коэффициенты матрицы : BT.709

    Аудио
    Идентификатор : 2
    Формат : AC-3
    Формат/Информация : Audio Coding 3
    Расширение режима : CM (complete main)
    Параметр Endianness формата : Big
    Идентификатор кодека : A_AC3
    Продолжительность : 39 м. 49 с.
    Вид битрейта : Постоянный
    Битрейт : 192 Кбит/сек
    Каналы : 2 канала
    Расположение каналов : Front: L R
    Частота : 44,1 КГц
    Частота кадров : 28,711 кадров/сек (1536 spf)
    Битовая глубина : 16 бит
    Метод сжатия : С потерями
    Размер потока : 54,7 Мбайт (11%)
    Default : Да
    Forced : Нет

    Скриншоты:
    скриншот   скриншот   скриншот   скриншот   скриншот   скриншот   скриншот  
    скриншот  

    Раздача ведётся путём добавления новых серий. Добавлена 32 серия (30.03.2017).Просьба перекачать торрент файл.

    pb.wtf



  • Скачать Майор и магия через торрент http://i90.fastpic.ru/big/2017/0131/f0/e0c09532d2b3cb6ae778d514a88544f0.jpg Скачать фильм Майор и магия через торрент бесплантно в хорошем качестве qw.png Офицер ФСО Антон Амосов проявляет принципиальность и ставит на место обнаглевшего чиновника. Над головой майора сгущаются тучи. Из ... 8.7 10 16
    Info! Золотая раздача, скачанное не засчитывается.
    Торрент: Зарегистрирован [2017-03-30 11:31] · скачан: 52 раз
    Статус: √ проверено
    Размер: 20.2 GB
    Как cкачать? Как скачать Майор и магия через торрент | qTorrent

    28-11-2019 20:33  

    Отключить всю рекламу на сайте

    09-02-2018 21:23 Майор и магия Скачать торрент  

    17 и 19 подтраиваютpb.wtf



      Дорогой пользователь! Огромная просьба, поблагодарите релизера, оцените раздачу и оставьте свои комментарий, если Вы скачали Майор и магия через торрент бесплатно! Внесите свою лепту в развитие PiratBit!
      Комментировать посты могут только пользователи прошедшие не сложную регистрацию
      Показать сообщения:    

      Майор и магия через торрент
      Скачать бесплатно Майор и магия
      Майор и магия скачать торрент
      Майор и магия смотреть онлайн
      Cкачать фильм Майор и магия бесплатно
      Майор и магия скачать торрент в хорошем качестве
      Майор и магия смотреть онлайн бесплатно в хорошем качестве


      Вы не можете начинать темы
      Вы не можете отвечать на сообщения
      Вы не можете редактировать свои сообщения
      Вы не можете удалять свои сообщения
      Вы не можете голосовать в опросах
      Вы не можете прикреплять файлы к сообщениям
      Вы можете скачивать файлы