Присоединяйтесь к нам в Telegram!, здесь всегда актуальный адрес сайта, оперативная поддержка и многое другое!!

>

5.9

iTunes

7.4

iTunes

9.4

1 сезон

1

7.4

2 сезон

7.2

iTunes

7.3

1 сезон

13

6.1

iTunes

8.3

GOG

30

ULTIMATE

pack

9.9

Лицензия

ВАЖНО

ИГРА 18+

pack

7.3

RePack

MK11

7.7

RePack

jed

7.8

RePack

fifa19

8.5

RePack

RDR2

RePack

NEED FOR SPEED™ PAYBACK

5 сезон

9 сезон

Бесстыжие 9 сезон

Все сериалы

все сериалы на PB.wtf

RePack

FAR CRY 5

Anonymous, доброй ночи, мы катастрофически не успеваем собрать деньги на оплату серверов, помогите нам пожалуйста 5,10,15р., для нас важна любая помощь . В качестве благодарности мы отключим Вам всю рекламу на сайте (укажите свой ник в строку Ваше имя)!

×
  
Magnet ссылка

Летят журавли (Михаил Калатозов) [1957, СССР, драма, мелодрама, военный, DVDRip от AVP Studio] pb.wtf

Летят журавли через торрент pb.wtf

Размер: 1.46 GB | Добавлен: 4 года 9 мес. назад | Торрент скачан:10 раз
Смотреть онлайн Летят журавли | Скачать    Ребята, помогите собрать деньги на оплату серверов!!!

31-01-2017 08:34 Летят журавли Скачать торрент  

Летят журавли
Страна: СССР
Производство: Мосфильм

Жанр: драма, мелодрама, военный
Год выпуска: 1957
Продолжительность: 01:32:18

Перевод: Не требуется
Cубтитры: нет
Оригинальная аудиодорожка: русский

Режиссер: Михаил Калатозов

В ролях:
Татьяна Самойлова, Алексей Баталов, Василий Меркурьев, Александр Шворин, Светлана Харитонова, Константин Кадочников, Валентин Зубков, Антонина Богданова, Борис Коковкин, Екатерина Куприянова...
Об актёрах подробней

Описание:
По пьесе Виктора Розова "Вечно живые".
Кинороман, получивший признание зрителей всего мира и удостоенный множества фестивальных наград, с огромной эмоциональной силой рассказывает о людях, в чьи судьбы безжалостно вторглась война, о верности и предательстве, о нравственных испытаниях, вынести которые не все смогли с честью... В центре фильма - трагическая история двух влюбленных, которых война разлучила навсегда.

Источник: DVD9 R5
Качество видео: DVDRip
Формат видео: AVI

Видео: 688x512 (4:3), 25 fps, XviD ~ 1805 kbps avg, 0.205 bit/pixel
Аудио: 48 kHz, Dolby Digital AC3 5.1, 448 kbps

Раздача от:
Общее
Полное имя : Letyat.zhuravli.1957.DVDRip_[New-team]_by_AVP_Studio.avi
Формат : AVI
Формат/Информация : Audio Video Interleave
Размер файла : 1,46 Гбайт
Продолжительность : 1 ч. 32 м.
Общий поток : 2263 Кбит/сек

Видео
Идентификатор : 0
Формат : MPEG-4 Visual
Профиль формата : Advanced Simple@L5
Параметр BVOP формата : 1
Параметр QPel формата : Нет
Параметр GMC формата : Без точки перехода
Параметр матрицы формата : Выборочная
Идентификатор кодека : XVID
Идентификатор кодека/Подсказка : XviD
Продолжительность : 1 ч. 32 м.
Битрейт : 1805 Кбит/сек
Ширина : 688 пикселей
Высота : 512 пикселей
Соотношение сторон : 4:3
Частота кадров : 25,000 кадров/сек
Цветовое пространство : YUV
Субдискретизация насыщенности : 4:2:0
Битовая глубина : 8 бит
Тип развёртки : Прогрессивная
Метод сжатия : С потерями
Бит/(Пиксели*Кадры) : 0.205
Размер потока : 1,16 Гбайт (80%)
Библиотека кодирования : XviD 73

Аудио
Идентификатор : 1
Формат : AC-3
Формат/Информация : Audio Coding 3
Расширение режима : CM (complete main)
Параметр Endianness формата : Big
Идентификатор кодека : 2000
Продолжительность : 1 ч. 32 м.
Вид битрейта : Постоянный
Битрейт : 448 Кбит/сек
Каналы : 6 каналов
Расположение каналов : Front: L C R, Side: L R, LFE
Частота : 48,0 КГц
Частота кадров : 31,250 кадров/сек (1536 spf)
Битовая глубина : 16 бит
Метод сжатия : С потерями
Размер потока : 295 Мбайт (20%)
Выравнивание : Соединение по промежуткам
Продолжительность промежутка : 32 мс. (0,80 видеокадр)
pb.wtf



Скачать Летят журавли через торрент http://s018.radikal.ru/i518/1701/a1/f6d106fab97f.png Скачать, смотреть онлайн Летят журавли бесплантно в хорошем качестве Описание:По пьесе Виктора Розова "Вечно живые".Кинороман, получивший признание зрителей всего мира и удостоенный множества фестивальных ... 10 10 1
Info! Золотая раздача, скачанное не засчитывается.
Торрент: Зарегистрирован [2017-01-31 08:34] · скачан: 10 раз
Статус: √ проверено
Размер: 1.46 GB
Как cкачать? Как скачать Летят журавли через торрент | UTorrent

% Раздел Тема Автор DL S | L
Кино СССР [ 24.73 GB ] Летят журавли [1957 военный история BDRemux 1080p] [FRA Transfer] - KORSAR kisa1980 Скачать
1 | 0
Кино СССР [ 1.46 GB ] Летят журавли [1957 СССР военный DVDRip-AVC от AVP Studio] AVP Studio Скачать
1 | 0
Кино СССР [ 745 MB ] Летят журавли [1957 СССР военный DVDRip от AVP Studio] AVP Studio Скачать
1 | 0
Кино СССР [ 1.21 GB ] Летят журавли [1957 военный DVDRip-AVC] smaster Скачать
1 | 0
Кино СССР [ 1.46 GB ] Летят журавли / Летят журавли [1957 военный DVDRip] spaMER1992 Скачать
1 | 0
Наши сериалы [ 2.2 GB ] Когда на юг улетят журавли [2010 ] aspace Скачать
1 | 0
Наши сериалы [ 2.03 GB ] Когда на юг улетят журавли / Kogda na yug uletyat zuravli 4 серии из 4 [2010 SATRip] nikolay27rus Скачать
1 | 0

28-11-2019 20:33  

Отключить всю рекламу на сайте

    Дорогой пользователь! Огромная просьба, поблагодарите релизера, оцените раздачу и оставьте свои комментарий, если Вы скачали Летят журавли через торрент бесплатно!
    Комментировать посты могут только пользователи прошедшие не сложную регистрацию
    Показать сообщения:    

    Летят журавли через торрент
    Скачать бесплатно Летят журавли
    Летят журавли скачать торрент
    Летят журавли смотреть онлайн
    Cкачать фильм Летят журавли бесплатно
    Летят журавли скачать торрент в хорошем качестве
    Летят журавли смотреть онлайн бесплатно в хорошем качестве


    Вы не можете начинать темы
    Вы не можете отвечать на сообщения
    Вы не можете редактировать свои сообщения
    Вы не можете удалять свои сообщения
    Вы не можете голосовать в опросах
    Вы не можете прикреплять файлы к сообщениям
    Вы можете скачивать файлы