Ссылка на приватное зеркало всего за 1$. Внимание количество ограничено!!!

iTunes

1+1

iTunes

мы

WEB-DL

1

iTunes

Чернобыль

iTunes

Ральф против интернета

Лицензия

ПШазам

Лицензия

Оно 2

Лицензия

30
pack

Вам бонус

ВАЖНО

!!Акция!!

Alien_RageХит недели

RePack

Resident Evil 21

ИГРА 18+

pack

RePack

jed

!!Акция!!

Alien_Rage

RePack

fifa19

RePack

Assassins Creed: Odyssey

RePack

NEED FOR SPEED™ PAYBACK

3 сезон

9 сезон

Бесстыжие 9 сезон

Все сериалы

все сериалы на PB.wtf

RePack

FAR CRY 5
Ребята, катастрофически не хватает 1900р. для оплаты серверов за Октябрь (всвязи с блокировками трафик упал в 3 раза), 1-2р., выручайте.
  

Летят журавли (Михаил Калатозов) [1957, СССР, драма, мелодрама, военный, DVDRip-AVC от AVP Studio] pb.wtf

Летят журавли через торрент pb.wtf

Размер: 1.46 GB | Добавлен: 2 года 10 мес. назад | Торрент скачан:58 раз
Скачать  

31-01-2017 08:35 Летят журавли Скачать торрент  

Летят журавли
Страна: СССР
Производство: Мосфильм

Жанр: драма, мелодрама, военный
Год выпуска: 1957
Продолжительность: 01:32:18

Перевод: Не требуется
Cубтитры: нет
Оригинальная аудиодорожка: русский

Режиссер: Михаил Калатозов

В ролях:
Татьяна Самойлова, Алексей Баталов, Василий Меркурьев, Александр Шворин, Светлана Харитонова, Константин Кадочников, Валентин Зубков, Антонина Богданова, Борис Коковкин, Екатерина Куприянова...
Об актёрах подробней

Описание:
По пьесе Виктора Розова "Вечно живые".
Кинороман, получивший признание зрителей всего мира и удостоенный множества фестивальных наград, с огромной эмоциональной силой рассказывает о людях, в чьи судьбы безжалостно вторглась война, о верности и предательстве, о нравственных испытаниях, вынести которые не все смогли с честью... В центре фильма - трагическая история двух влюбленных, которых война разлучила навсегда.

Источник: DVD9 R5
Качество видео: DVDRip-AVC
Формат видео: MKV

Видео: 712->742x556 (4:3), 25 fps, H264 ~ 1813 kbps avg, 0.183 bit/pixel
Аудио: 48 kHz, Dolby Digital AC3 5.1, 448 kbps

Раздача от:
Общее
Полное имя : Letyat.zhuravli.1957.DVDRip-AVC_[New-team]_by_AVP_Studio.mkv
Формат : Matroska
Версия формата : Version 4 / Version 2
Размер файла : 1,46 Гбайт
Продолжительность : 1 ч. 32 м.
Общий поток : 2262 Кбит/сек
Дата кодирования : UTC 2017-01-30 16:12:22
Программа кодирования : mkvmerge v9.5.0 ('Quiet Fire') 64bit
Библиотека кодирования : libebml v1.3.4 + libmatroska v1.4.5

Видео
Идентификатор : 1
Формат : AVC
Формат/Информация : Advanced Video Codec
Профиль формата : High@L4.1
Параметр CABAC формата : Да
Параметр ReFrames формата : 10 кадров
Идентификатор кодека : V_MPEG4/ISO/AVC
Продолжительность : 1 ч. 32 м.
Битрейт : 1813 Кбит/сек
Ширина : 712 пикселей
Высота : 556 пикселей
Соотношение сторон : 4:3
Режим частоты кадров : Постоянный
Частота кадров : 25,000 кадров/сек
Цветовое пространство : YUV
Субдискретизация насыщенности : 4:2:0
Битовая глубина : 8 бит
Тип развёртки : Прогрессивная
Бит/(Пиксели*Кадры) : 0.183
Размер потока : 1,17 Гбайт (80%)
Библиотека кодирования : x264 core 148 r2597 e86f3a1
Настройки программы : cabac=1 / ref=10 / deblock=1:-2:-1 / analyse=0x3:0x113 / me=umh / subme=10 / psy=1 / psy_rd=1.00:0.00 / mixed_ref=1 / me_range=32 / chroma_me=1 / trellis=2 / 8x8dct=1 / cqm=0 / deadzone=21,11 / fast_pskip=1 / chroma_qp_offset=-2 / threads=6 / lookahead_threads=1 / sliced_threads=0 / nr=0 / decimate=0 / interlaced=0 / bluray_compat=0 / constrained_intra=0 / bframes=8 / b_pyramid=2 / b_adapt=2 / b_bias=0 / direct=3 / weightb=1 / open_gop=0 / weightp=2 / keyint=250 / keyint_min=25 / scenecut=40 / intra_refresh=0 / rc=2pass / mbtree=0 / bitrate=1813 / ratetol=1.0 / qcomp=0.60 / qpmin=0 / qpmax=69 / qpstep=4 / cplxblur=20.0 / qblur=0.5 / ip_ratio=1.40 / pb_ratio=1.30 / aq=1:1.00
Default : Да
Forced : Нет

Аудио
Идентификатор : 2
Формат : AC-3
Формат/Информация : Audio Coding 3
Расширение режима : CM (complete main)
Параметр Endianness формата : Big
Идентификатор кодека : A_AC3
Продолжительность : 1 ч. 32 м.
Вид битрейта : Постоянный
Битрейт : 448 Кбит/сек
Каналы : 6 каналов
Расположение каналов : Front: L C R, Side: L R, LFE
Частота : 48,0 КГц
Частота кадров : 31,250 кадров/сек (1536 spf)
Битовая глубина : 16 бит
Метод сжатия : С потерями
Размер потока : 295 Мбайт (20%)
Default : Да
Forced : Нет
pb.wtf



Скачать Летят журавли через торрент http://s018.radikal.ru/i518/1701/a1/f6d106fab97f.png Скачать фильм Летят журавли через торрент бесплантно в хорошем качестве Описание:По пьесе Виктора Розова "Вечно живые".Кинороман, получивший признание зрителей всего мира и удостоенный множества фестивальных ... 10 10 2
Info! Золотая раздача, скачанное не засчитывается.
Торрент: Зарегистрирован [2017-01-31 08:35] · скачан: 58 раз
Статус: √ проверено
Размер: 1.46 GB
Как cкачать? Как скачать Летят журавли через торрент | qTorrent

% Раздел Тема Автор DL S | L
Кино СССР [ 24.73 GB ] Летят журавли [1957 военный история BDRemux 1080p] [FRA Transfer] - KORSAR kisa1980 Скачать
1 | 0
Кино СССР [ 745 MB ] Летят журавли [1957 СССР военный DVDRip от AVP Studio] AVP Studio Скачать
1 | 0
Кино СССР [ 1.46 GB ] Летят журавли [1957 СССР военный DVDRip от AVP Studio] AVP Studio Скачать
1 | 0
Кино СССР [ 1.21 GB ] Летят журавли [1957 военный DVDRip-AVC] smaster Скачать
1 | 0
Кино СССР [ 1.46 GB ] Летят журавли / Летят журавли [1957 военный DVDRip] spaMER1992 Скачать
1 | 0
Наши сериалы [ 2.2 GB ] Когда на юг улетят журавли [2010 ] aspace Скачать
1 | 0
Наши сериалы [ 2.03 GB ] Когда на юг улетят журавли / Kogda na yug uletyat zuravli 4 серии из 4 [2010 SATRip] nikolay27rus Скачать
1 | 0

28-11-2019 20:33  

Отключить всю рекламу на сайте

    Дорогой пользователь! Огромная просьба, поблагодарите релизера, оцените раздачу и оставьте свои комментарий, если Вы скачали Летят журавли через торрент бесплатно! Внесите свою лепту в развитие PiratBit!
    Комментировать посты могут только пользователи прошедшие не сложную регистрацию
    Показать сообщения:    

    Летят журавли через торрент
    Скачать бесплатно Летят журавли
    Летят журавли скачать торрент
    Летят журавли смотреть онлайн
    Cкачать фильм Летят журавли бесплатно
    Летят журавли скачать торрент в хорошем качестве
    Летят журавли смотреть онлайн бесплатно в хорошем качестве


    Вы не можете начинать темы
    Вы не можете отвечать на сообщения
    Вы не можете редактировать свои сообщения
    Вы не можете удалять свои сообщения
    Вы не можете голосовать в опросах
    Вы не можете прикреплять файлы к сообщениям
    Вы можете скачивать файлы