MEGA SALE -50% FORZA HORIZON 4 ULTIMATE+ВСЕ DLC+ОНЛАЙН всего за 599р. 299 руб. (супер цена). Внимание количество ограничено!!!

iTunes

1+1

iTunes

мы

iTunes

1

iTunes

Чернобыль

iTunes

Ральф против интернета

Лицензия

ПШазам

Лицензия

Игра престолов

Лицензия

30
pack

ВАЖНО

!!Акция!!

Alien_RageХит недели

RePack

Resident Evil 21

ИГРА 18+

pack

RePack

Metro:Exodus

!!Акция!!

Alien_Rage

RePack

fifa19

RePack

Assassins Creed: Odyssey

RePack

NEED FOR SPEED™ PAYBACK

3 сезон

9 сезон

Бесстыжие 9 сезон

Все сериалы

все сериалы на PB.wtf

RePack

FAR CRY 5
Ребята, катастрофически не хватает 7730р. для оплаты серверов за ИЮЛЬ (всвязи с блокировками трафик упал в 3 раза), 1-2р., выручайте.
  

Феномен / The Phenom (Ноа Бушел) [2016 г., драма, спорт, HDRip, Любительский многоголосый (Синема УС)] pb.wtf

Феномен через торрент pb.wtf

Размер: 1.37 GB | Добавлен: 2 года 6 мес. назад | Торрент скачан:151 раз
Скачать  

31-01-2017 10:09 Феномен Скачать торрент  

Феномен / The Phenom
Год выпуска: 2016
Страна: США
Жанр: драма, спорт
Продолжительность: 01:27:58
Перевод: Любительский многоголосый (Синема УС)
Субтитры: нет

Режиссер: Ноа Бушел

Премьера в мире: 17 апреля 2016

В ролях: Итан Хоук, Пол Джаматти, Джонни Симмонс, Элизабет Марвел, Пол Адельштейн, Марин Айрлэнд, Юл Васкес, Софи Кеннеди Кларк

Описание: Молодой и талантливый подающий терпит на поле провал за провалом из-за психологической травмы. Юношу направляют к спортивному терапевту, который выводит наружу его демонов прошлого, а в первую очередь — воспоминания о жестоком отце...

Доп. информация: Есть реклама.

Качество: HDRip
Формат: AVI
Видео кодек: XviD
Аудио кодек: AC3
Видео: 720x304 (2.35:1), 23.976 fps, XviD ~1 833 kbps avg
Аудио: 48 kHz, AC3 Dolby Digital, 2/0 (L,R) ch, ~384 kbps



General
Complete name : H:\релизы.торрентфайл\The.Phenom.2016.P.HDRip.14OOMB_KOSHARA.avi
Format : AVI
Format/Info : Audio Video Interleave
File size : 1.37 GiB
Duration : 1h 27mn
Overall bit rate : 2 227 Kbps
Writing application : VirtualDubMod 1.5.10.2 (build 2540/release)
Writing library : VirtualDubMod build 2540/release

Video
ID : 0
Format : MPEG-4 Visual
Format profile : Advanced Simple@L5
Format settings, BVOP : 2
Format settings, QPel : No
Format settings, GMC : No warppoints
Format settings, Matrix : Default (MPEG)
Codec ID : XVID
Codec ID/Hint : XviD
Duration : 1h 27mn
Bit rate : 1 834 Kbps
Width : 720 pixels
Height : 304 pixels
Display aspect ratio : 2.35:1
Frame rate : 23.976 fps
Color space : YUV
Chroma subsampling : 4:2:0
Bit depth : 8 bits
Scan type : Progressive
Compression mode : Lossy
Bits/(Pixel*Frame) : 0.349
Stream size : 1.13 GiB (82%)
Writing library : XviD 1.2.1 (UTC 2008-12-04)

Audio
ID : 1
Format : AC-3
Format/Info : Audio Coding 3
Mode extension : CM (complete main)
Format settings, Endianness : Big
Codec ID : 2000
Duration : 1h 27mn
Bit rate mode : Constant
Bit rate : 384 Kbps
Channel(s) : 2 channels
Channel positions : Front: L R
Sampling rate : 48.0 KHz
Bit depth : 16 bits
Compression mode : Lossy
Stream size : 242 MiB (17%)
Alignment : Split accross interleaves
Interleave, duration : 42 ms (1.00 video frame)
Interleave, preload duration : 500 ms

pb.wtf



Скачать Феномен через торрент http://pic1.kartinco.top/images/11/latsk.jpg Скачать фильм Феномен через торрент бесплантно в хорошем качестве Описание: Молодой и талантливый подающий терпит на поле провал за провалом из-за психологической травмы. Юношу направляют к спортивному ... 8.5 10 6
Торрент: Зарегистрирован [2017-01-31 10:09] · скачан: 151 раз
Статус: T временная
Размер: 1.37 GB
Как cкачать? Как скачать Феномен через торрент | qTorrent


>> Регистрируемся здесь <<






Отзывы и комментарии о схеме читаем и пишем здесь: ---> Отзывы и комментарии о схеме

Новые благодарочки в телеграм довольных пользователей:
скриншот   скриншот   скриншот   скриншот   скриншот
    Дорогой пользователь! Огромная просьба, поблагодарите релизера, оцените раздачу и оставьте свои комментарий, если Вы скачали Феномен через торрент бесплатно! Внесите свою лепту в развитие PiratBit!
    Комментировать посты могут только пользователи прошедшие не сложную регистрацию
    Показать сообщения:    

    Феномен через торрент
    Скачать бесплатно Феномен
    Феномен скачать торрент
    Феномен смотреть онлайн
    Cкачать фильм Феномен бесплатно
    Феномен скачать торрент в хорошем качестве
    Феномен смотреть онлайн бесплатно в хорошем качестве


    Вы не можете начинать темы
    Вы не можете отвечать на сообщения
    Вы не можете редактировать свои сообщения
    Вы не можете удалять свои сообщения
    Вы не можете голосовать в опросах
    Вы не можете прикреплять файлы к сообщениям
    Вы можете скачивать файлы