Ссылка на приватное зеркало всего за 1$. Внимание количество ограничено!!!

OK

1+1

iTunes

мы

OK

1

WEB-DLRip

Джокер

Пифагор

Ведьмак / The Witcher сериал

Лицензия

ПШазам

ОК

Оно 2

iTunes

30
pack

Вам бонус

ВАЖНО

!!Акция!!

Alien_RageХит недели

RePack

Resident Evil 21

ИГРА 18+

pack

RePack

jed

!!Акция!!

Alien_Rage

RePack

fifa19

RePack

Assassins Creed: Odyssey

RePack

NEED FOR SPEED™ PAYBACK

4 сезон

9 сезон

Бесстыжие 9 сезон

Все сериалы

все сериалы на PB.wtf

RePack

FAR CRY 5
  

iМама / The iMom (Эриель Мартин / Ariel Martin) [2014, короткометражка, драма, WEB-DLRip-AVC] [DVO] (DeeAFilm Studio) pb.wtf

iМама через торрент pb.wtf

Раздают: 1 [ 0 KB/s ]
Размер: 279 MB | Добавлен: 2 года 11 мес. назад | Торрент скачан:72 раза
Скачать  

31-01-2017 12:58 iМама Скачать торрент  

iМама / The iMom Год выпуска: 2014
Страна: Австралия, США
Жанр: короткометражка, драма
Продолжительность: 00:13:35
Перевод: Любительский (Двухголосый закадровый) - DeeAFilm Studio
субтитры: отсутствуют

Режиссёр: Эриель Мартин : Ariel Martin

В главных ролях: Карл Битти, Curt Bonnem, Матильда Браун, Марта Дюссельдорп, Лара Эверли, Мишель Мартин, Том Киш, Эрин Мэтьюз, Валентайн Миле, Эви Ротман

Описание: В короткометражной драме «iМама» рассказана история одной семьи, частью которой является революционный робот, «способный изменить жизнь». Рекламщики твердят, что это первый в мире киборг, который может полностью заменить маму…


Качество: WEB-DLRip-AVC
Формат: MKV
Видео кодек: AVC
Аудио кодек: АAС
Видео: V_MPEG4/ISO/AVC, 1152x648, 25 fps, ~2498 kbps avg, 0.134 bit/pixel
Аудио #1: [RUS] 48 kHz, AAC, 2ch, ~112 kbps
Аудио #2: [ENG] 48 kHz, AAC, 2ch, ~256 kbps
Озвучили: Рита Сахно, Михаил Дипалом
Перевод: Юрий Аркалов
Общее
Уникальный идентификатор : 180958263844598164287828155715350973164 (0x88234B3D2DC31C3EBEF6C79E3DD04AEC)
Полное имя : D:\Short\The iMom\The iMom.2014.WEB-DLRip-AVC.mkv
Формат : Matroska
Версия формата : Version 4 / Version 2
Размер файла : 279 Мбайт
Продолжительность : 13 м.
Общий поток : 2870 Кбит/сек
Название фильма : The iMom.2014.WEB-DLRip-AVC -Azureus-
Дата кодирования : UTC 2017-01-31 09:22:02
Программа кодирования : mkvmerge v9.4.0 ('Knurl') 64bit
Библиотека кодирования : libebml v1.3.4 + libmatroska v1.4.5
Видео
Идентификатор : 1
Формат : AVC
Формат/Информация : Advanced Video Codec
Профиль формата : High@L4.1
Параметр CABAC формата : Да
Параметр ReFrames формата : 9 кадров
Идентификатор кодека : V_MPEG4/ISO/AVC
Продолжительность : 13 м.
Битрейт : 2498 Кбит/сек
Ширина : 1152 пикселя
Высота : 648 пикселей
Соотношение сторон : 16:9
Режим частоты кадров : Постоянный
Частота кадров : 25,000 кадров/сек
Цветовое пространство : YUV
Субдискретизация насыщенности : 4:2:0
Битовая глубина : 8 бит
Тип развёртки : Прогрессивная
Бит/(Пиксели*Кадры) : 0.134
Размер потока : 243 Мбайт (87%)
Библиотека кодирования : x264 core 148 r2744kMod b97ae06
Настройки программы : cabac=1 / ref=9 / deblock=1:-2:-1 / analyse=0x3:0x133 / me=umh / subme=11 / psy=1 / fade_compensate=0.00 / psy_rd=0.60:0.00 / mixed_ref=1 / me_range=32 / chroma_me=1 / trellis=2 / 8x8dct=1 / cqm=0 / deadzone=21,11 / fast_pskip=0 / chroma_qp_offset=-2 / threads=6 / lookahead_threads=1 / sliced_threads=0 / nr=0 / decimate=1 / interlaced=0 / bluray_compat=0 / constrained_intra=0 / bframes=16 / b_pyramid=2 / b_adapt=2 / b_bias=0 / direct=3 / weightb=1 / open_gop=0 / weightp=2 / keyint=250 / keyint_min=25 / scenecut=40 / intra_refresh=0 / rc_lookahead=70 / rc=crf / mbtree=0 / crf=18.0000 / qcomp=0.60 / qpmin=0 / qpmax=69 / qpstep=4 / vbv_maxrate=50000 / vbv_bufsize=62500 / crf_max=0.0 / nal_hrd=none / filler=0 / ip_ratio=1.40 / pb_ratio=1.30 / aq=3:1.00
Default : Да
Forced : Нет
Цветовой диапазон : Limited
Основные цвета : BT.709
Характеристики трансфера : BT.709
Коэффициенты матрицы : BT.709
Аудио #1
Идентификатор : 2
Формат : AAC
Формат/Информация : Advanced Audio Codec
Профиль формата : LC
Идентификатор кодека : A_AAC
Продолжительность : 13 м.
Битрейт : 112 Кбит/сек
Каналы : 2 канала
Расположение каналов : Front: L R
Частота : 48,0 КГц
Частота кадров : 46,875 кадров/сек (1024 spf)
Метод сжатия : С потерями
Задержка видео : 9 мс.
Размер потока : 10,9 Мбайт (4%)
Заголовок : MVO - DeeAFilm Studio
Язык : Russian
Default : Да
Forced : Нет
Аудио #2
Идентификатор : 3
Формат : AAC
Формат/Информация : Advanced Audio Codec
Профиль формата : LC
Идентификатор кодека : A_AAC
Продолжительность : 13 м.
Битрейт : 256 Кбит/сек
Каналы : 2 канала
Расположение каналов : Front: L R
Частота : 48,0 КГц
Частота кадров : 46,875 кадров/сек (1024 spf)
Метод сжатия : С потерями
Размер потока : 24,9 Мбайт (9%)
Заголовок : ENG
Язык : English
Default : Нет
Forced : Нет
pb.wtf



Скачать iМама через торрент http://i2.imageban.ru/out/2017/01/31/70704bc42708bb7a31c5a4e2ed2018a1.png Скачать фильм iМама через торрент бесплантно в хорошем качестве Описание: В короткометражной драме «iМама» рассказана история одной семьи, частью которой является революционный робот, «способный изменить ... 6.3 10 3
Торрент: Зарегистрирован [2017-01-31 12:58] · скачан: 72 раз
Статус: √ проверено
Размер: 279 MB
Как cкачать? Как скачать iМама через торрент | qTorrent

28-11-2019 20:33  

Отключить всю рекламу на сайте

01-02-2017 01:45 iМама Скачать торрент  

iМама, iBoy... у Apple новая линейка продуктов xDpb.wtf



01-02-2017 06:22 iМама Скачать торрент  

DeN72 писал(а):

iМама, iBoy... у Apple новая линейка продуктов xD

iБатя с iДедом на подходе
pb.wtf



01-02-2017 18:16 iМама Скачать торрент  

У энтой мамы тити как ?pb.wtf



    Дорогой пользователь! Огромная просьба, поблагодарите релизера, оцените раздачу и оставьте свои комментарий, если Вы скачали iМама через торрент бесплатно! Внесите свою лепту в развитие PiratBit!
    Комментировать посты могут только пользователи прошедшие не сложную регистрацию
    Показать сообщения:    

    iМама через торрент
    Скачать бесплатно iМама
    iМама скачать торрент
    iМама смотреть онлайн
    Cкачать фильм iМама бесплатно
    iМама скачать торрент в хорошем качестве
    iМама смотреть онлайн бесплатно в хорошем качестве


    Вы не можете начинать темы
    Вы не можете отвечать на сообщения
    Вы не можете редактировать свои сообщения
    Вы не можете удалять свои сообщения
    Вы не можете голосовать в опросах
    Вы не можете прикреплять файлы к сообщениям
    Вы можете скачивать файлы