Death Stranding+DLC+АВТОАКТИВАЦИЯ

iTunes

iTunes

iTunes

1

iTunes

iTunes

iTunes

iTunes

iTunes

30
pack

$ от Little Big

ВАЖНО

!!Акция!!

Alien_RageХит недели

RePack

Resident Evil 21

ИГРА 18+

pack

RePack

jed

!!Акция!!

Alien_Rage

RePack

fifa19

RePack

Assassins Creed: Odyssey

RePack

NEED FOR SPEED™ PAYBACK

4 сезон

9 сезон

Бесстыжие 9 сезон

Все сериалы

все сериалы на PB.wtf

RePack

FAR CRY 5
  

Три богатыря и Морской царь (Константин Феоктистов) [2016, мультфильм, комедия, приключения, WEB-DLRip-AVC] оригинал [iTunes] от R.G.Resident pb.wtf

Три богатыря и Морской царь через торрент pb.wtf

Раздают: 1 [ 0 KB/s ]
Размер: 1.46 GB | Добавлен: 3 года 5 мес. назад | Торрент скачан:1159 раз
Скачать  

02-02-2017 01:25 Три богатыря и Морской царь Скачать торрент  

Три богатыря и Морской царь


Год выпуска: 2016
Страна: Россия
Жанр: мультфильм, комедия, приключения
Продолжительность: 01:13:37
Перевод: оригинал [iTunes]
Режиссер: Константин Феоктистов
В ролях:

Сергей Маковецкий (Князь Киевский, озвучка), Дмитрий Высоцкий (Конь Юлий, озвучка), Олег Куликович (Алёша Попович, озвучка), Валерий Соловьев (Добрыня Никитич, озвучка), Дмитрий Быковский-Ромашов (Илья Муромец, озвучка), Елена Шульман (Настасья, озвучка), Лия Медведева (Любава, озвучка), Мария Цветкова-Овсянникова (Алёнушка, озвучка)
Описание:
У богатырей семейные неурядицы. Чтобы развеяться, они решают по-быстрому сгонять в Китай за зубом дракона, символом мудрости и силы. В это же время князь Киевский отправляется на прогулку вместе с конем Юлием за сокровищами морского царя, чтобы пополнить казну и «залатать бюджет». Да вот только морской царь решил жениться и для этого утопил Киев. И как теперь быть? Что поможет нашим героям? Дружба, смелость и, конечно, любовь.
Мировая премьера: 1 января 2017

Качество: WEB-DLRip-AVC Rip by
Формат: MKV
Видео: AVC, 1024x554 (1.85:1), 2460 kbps, 25 fps, 0,173 bpp
Аудио: русский / AC3 / 5.1 / 48 kHz / 384 kbps / ||

General
Unique ID : 171619215773064043238290934558663391906 (0x811CA89E87695821A3584A9D19DC3AA2)
Complete name : E:\TroyKa.BanduKoFF.i.Tsar.iz.MoRYa.2O16.WEB-DLRip-AVC.by.White Smoke.R.G.Resident.mkv
Format : Matroska
Format version : Version 4 / Version 2
File size : 1.46 GiB
Duration : 1 h 13 min
Overall bit rate : 2 844 kb/s
Movie name : TroyKa.BanduKoFF.i.Tsar.iz.MoRYa.2O16.WEB-DLRip-AVC.by.White Smoke.R.G.Resident.mkv
Encoded date : UTC 2017-02-02 00:58:43
Writing application : mkvmerge v6.8.0 ('Theme for Great Cities') 64bit built on Mar 2 2014 21:34:26
Writing library : libebml v1.3.0 + libmatroska v1.4.1

Video
ID : 1
Format : AVC
Format/Info : Advanced Video Codec
Format profile : High@L4.1
Format settings, CABAC : Yes
Format settings, ReFrames : 12 frames
Codec ID : V_MPEG4/ISO/AVC
Duration : 1 h 13 min
Bit rate : 2 460 kb/s
Width : 1 024 pixels
Height : 554 pixels
Display aspect ratio : 1.85:1
Frame rate mode : Constant
Frame rate : 25.000 FPS
Color space : YUV
Chroma subsampling : 4:2:0
Bit depth : 8 bits
Scan type : Progressive
Bits/(Pixel*Frame) : 0.173
Stream size : 1.24 GiB (85%)
Writing library : x264 core 148 r2638 7599210
Encoding settings : cabac=1 / ref=12 / deblock=1:-2:-1 / analyse=0x3:0x113 / me=umh / subme=11 / psy=1 / psy_rd=0.00:0.15 / mixed_ref=1 / me_range=32 / chroma_me=1 / trellis=2 / 8x8dct=1 / cqm=0 / deadzone=21,11 / fast_pskip=0 / chroma_qp_offset=-3 / threads=6 / lookahead_threads=1 / sliced_threads=0 / nr=0 / decimate=0 / interlaced=0 / bluray_compat=0 / constrained_intra=0 / bframes=12 / b_pyramid=2 / b_adapt=2 / b_bias=0 / direct=1 / weightb=0 / open_gop=0 / weightp=2 / keyint=250 / keyint_min=25 / scenecut=40 / intra_refresh=0 / rc_lookahead=40 / rc=2pass / mbtree=1 / bitrate=2460 / ratetol=1.0 / qcomp=0.70 / qpmin=0 / qpmax=69 / qpstep=4 / cplxblur=20.0 / qblur=0.5 / vbv_maxrate=50000 / vbv_bufsize=65500 / nal_hrd=none / filler=0 / ip_ratio=1.40 / aq=1:1.00
Default : Yes
Forced : No
Statistics Tags Issue : mkvmerge v7.0.0 ('Where We Going') 32bit built on Jun 9 2014 15:08:34 2017-02-02 00:49:50 / mkvmerge v6.8.0 ('Theme for Great Cities') 64bit built on Mar 2 2014 21:34:26 2017-02-02 00:58:43
FromStats_BitRate : 2458620
FromStats_Duration : 01:13:37.400000000
FromStats_FrameCount : 110435
FromStats_StreamSize : 1357588524

Audio
ID : 2
Format : AC-3
Format/Info : Audio Coding 3
Mode extension : CM (complete main)
Format settings, Endianness : Big
Codec ID : A_AC3
Duration : 1 h 13 min
Bit rate mode : Constant
Bit rate : 384 kb/s
Channel(s) : 6 channels
Channel positions : Front: L C R, Side: L R, LFE
Sampling rate : 48.0 kHz
Frame rate : 31.250 FPS (1536 spf)
Compression mode : Lossy
Stream size : 202 MiB (14%)
Language : Russian
Default : Yes
Forced : No

© Оформление by White Smoke pb.wtf



Скачать Три богатыря и Морской царь через торрент http://i4.imageban.ru/out/2017/02/02/5a27bc8b9b63bd7548e30509486595f9.gif Скачать фильм Три богатыря и Морской царь через торрент бесплантно в хорошем качестве Описание: У богатырей семейные неурядицы. Чтобы развеяться, они решают по-быстрому сгонять в за зубом дракона, символом мудрости и ... 9.5 10 26
Info! Золотая раздача, скачанное не засчитывается.
Торрент: Зарегистрирован [2017-02-02 01:25] · скачан: 1 159 раз
Статус: √ проверено
Размер: 1.46 GB
Как cкачать? Как скачать Три богатыря и Морской царь через торрент | qTorrent

28-11-2019 20:33  

Отключить всю рекламу на сайте

02-02-2017 05:36 Три богатыря и Морской царь Скачать торрент  

Спасибо)pb.wtf



    Дорогой пользователь! Огромная просьба, поблагодарите релизера, оцените раздачу и оставьте свои комментарий, если Вы скачали Три богатыря и Морской царь через торрент бесплатно! Внесите свою лепту в развитие PiratBit!
    Комментировать посты могут только пользователи прошедшие не сложную регистрацию
    Показать сообщения:    

    Три богатыря и Морской царь через торрент
    Скачать бесплатно Три богатыря и Морской царь
    Три богатыря и Морской царь скачать торрент
    Три богатыря и Морской царь смотреть онлайн
    Cкачать фильм Три богатыря и Морской царь бесплатно
    Три богатыря и Морской царь скачать торрент в хорошем качестве
    Три богатыря и Морской царь смотреть онлайн бесплатно в хорошем качестве


    Вы не можете начинать темы
    Вы не можете отвечать на сообщения
    Вы не можете редактировать свои сообщения
    Вы не можете удалять свои сообщения
    Вы не можете голосовать в опросах
    Вы не можете прикреплять файлы к сообщениям
    Вы можете скачивать файлы