Ссылка на приватное зеркало нашего сайта всего за 1$. Внимание количество ограничено!!!

2 сезон

iTunes

1 сезон

1

iTunes

iTunes

iTunes

1 сезон

RePack

30

ИГРА 18+

pack

ВАЖНО

!!Акция!!

Alien_RageХит недели

RePack

MK11
pack

Забери бонус

RePack

jed

!!Акция!!

Alien_Rage

RePack

fifa19

RePack

Assassins Creed: Odyssey

RePack

NEED FOR SPEED™ PAYBACK

4 сезон

9 сезон

Бесстыжие 9 сезон

Все сериалы

все сериалы на PB.wtf

RePack

FAR CRY 5
  

Святые узы брака / Holy Matrimony (Леонард Нимой) [1994, комедия, криминал, BDRip 1080p by msltel] MVO, DVO, AVO pb.wtf

Святые узы брака через торрент pb.wtf

Размер: 11.86 GB | Добавлен: 3 года 8 мес. назад | Торрент скачан:11 раз
Скачать  

02-02-2017 06:11 Святые узы брака Скачать торрент  

Название: Святые узы брака
Оригинальное название: Holy Matrimony
Год выпуска: 1994
Страна: США
Жанр: комедия, криминал
Продолжительность: 01:33:03
Перевод: профессиональный многоголосый, профессиональный двухголосый, авторский

Режиссёр: Леонард Нимой

В ролях: Патриция Аркетт, Джозеф Гордон-Левитт, Армин Мюллер-Шталь, Тейт Донован, Джон Шак, Лоис Смит, Кортни Б. Вэнс, Джеффри Нордлинг, Ричард Рили, Мэри Пэт Глисон

Описание: Эффектная блондинка Гавана ограбила вместе со своим приятелем Питером кассу парка развлечений. Пустившись в бега, они укрылись в религиозной колонии гуттеритов, где вырос Питер. Шустрая и раскованная Гавана оказалась вынуждена следовать строгим архаичным законам и правилам гуттеритов, не признающих телевизоры, косметику, сигареты и крепкие выражения. Более того, ей пришлось официально оформить брак с Питером и выполнять роль покорной и кроткой супруги. При этом она понятия не имела, где Питер спрятал деньги. А когда он погибает в автокатастрофе, чтобы остаться в колонии и найти тайник с деньгами, ей приходится, по местным законам, выйти замуж за младшего брата Питера. Всё бы ничего, но новому супругу всего 12 лет...



Качество: BDRip 1080p
Формат: MKV
Видео: MPEG-4 AVC, 16.2 Mбит/с, 1920x1080, 23.952 кадр/с
Аудио 1: русский, AC3, 192 kbps, 2 ch, 48 kHz [профессиональный многоголосый, Первый канал]
Аудио 2: русский, AC3, 192 kbps, 2 ch, 48 kHz [профессиональный двухголосый, Екатеринбург Арт]
Аудио 3: русский, AC3, 192 kbps, 2 ch, 48 kHz [авторский, Василий Горчаков]
Аудио 4: английский, AC3, 192 kbps, 2 ch, 48 kHz [оригинал]
Имеются неименованные главы/чаптеры.
Общее
Уникальный идентификатор : 207486364199672628562444238486474330360 (0x9C186B91564DCBF191A1FB764FE410F8)
Полное имя : D:\Video\Святые узы брака.1994.BDRip.1080p by msltel.mkv
Формат : Matroska
Версия формата : Version 4 / Version 2
Размер файла : 11,9 Гбайт
Продолжительность : 1 ч. 33 м.
Общий поток : 18,2 Мбит/сек
Название фильма : Rip by msltel
Дата кодирования : UTC 2017-02-02 03:04:50
Программа кодирования : mkvmerge v8.2.0 ('World of Adventure') 64bit
Библиотека кодирования : libebml v1.3.1 + libmatroska v1.4.2

Видео
Идентификатор : 1
Формат : AVC
Формат/Информация : Advanced Video Codec
Профиль формата : High@L4.1
Параметр CABAC формата : Да
Параметр ReFrames формата : 4 кадра
Идентификатор кодека : V_MPEG4/ISO/AVC
Продолжительность : 1 ч. 32 м.
Битрейт : 16,2 Мбит/сек
Ширина : 1920 пикселей
Высота : 1080 пикселей
Соотношение сторон : 16:9
Режим частоты кадров : Постоянный
Частота кадров : 23,952 кадра/сек
Цветовое пространство : YUV
Субдискретизация насыщенности : 4:2:0
Битовая глубина : 8 бит
Тип развёртки : Прогрессивная
Бит/(Пиксели*Кадры) : 0.326
Размер потока : 10,5 Гбайт (89%)
Библиотека кодирования : x264 core 146 r2538 121396c
Настройки программы : cabac=1 / ref=4 / deblock=1:-3:-2 / analyse=0x3:0x113 / me=umh / subme=11 / psy=1 / psy_rd=1.00:0.15 / mixed_ref=1 / me_range=32 / chroma_me=1 / trellis=2 / 8x8dct=1 / cqm=0 / deadzone=21,11 / fast_pskip=0 / chroma_qp_offset=-3 / threads=6 / lookahead_threads=1 / sliced_threads=0 / nr=0 / decimate=1 / interlaced=0 / bluray_compat=0 / constrained_intra=0 / bframes=9 / b_pyramid=2 / b_adapt=2 / b_bias=0 / direct=1 / weightb=1 / open_gop=0 / weightp=2 / keyint=230 / keyint_min=22 / scenecut=40 / intra_refresh=0 / rc_lookahead=40 / rc=crf / mbtree=0 / crf=17.2 / qcomp=0.60 / qpmin=0 / qpmax=69 / qpstep=4 / vbv_maxrate=62500 / vbv_bufsize=78125 / crf_max=0.0 / nal_hrd=none / filler=0 / ip_ratio=1.40 / pb_ratio=1.30 / aq=1:1.00
Язык : English
Default : Да
Forced : Нет

Аудио #1
Идентификатор : 2
Формат : AC-3
Формат/Информация : Audio Coding 3
Расширение режима : CM (complete main)
Параметр Endianness формата : Big
Идентификатор кодека : A_AC3
Продолжительность : 1 ч. 33 м.
Вид битрейта : Постоянный
Битрейт : 192 Кбит/сек
Каналы : 2 канала
Расположение каналов : Front: L R
Частота : 48,0 КГц
Частота кадров : 31,250 кадров/сек (1536 spf)
Битовая глубина : 16 бит
Метод сжатия : С потерями
Размер потока : 128 Мбайт (1%)
Заголовок : MVO (Первый канал)
Язык : Russian
Default : Да
Forced : Нет

Аудио #2
Идентификатор : 3
Формат : AC-3
Формат/Информация : Audio Coding 3
Расширение режима : CM (complete main)
Параметр Endianness формата : Big
Идентификатор кодека : A_AC3
Продолжительность : 1 ч. 32 м.
Вид битрейта : Постоянный
Битрейт : 192 Кбит/сек
Каналы : 2 канала
Расположение каналов : Front: L R
Частота : 48,0 КГц
Частота кадров : 31,250 кадров/сек (1536 spf)
Битовая глубина : 16 бит
Метод сжатия : С потерями
Размер потока : 128 Мбайт (1%)
Заголовок : DVO (Екатеринбург Арт)
Язык : Russian
Default : Нет
Forced : Нет

Аудио #3
Идентификатор : 4
Формат : AC-3
Формат/Информация : Audio Coding 3
Расширение режима : CM (complete main)
Параметр Endianness формата : Big
Идентификатор кодека : A_AC3
Продолжительность : 1 ч. 33 м.
Вид битрейта : Постоянный
Битрейт : 192 Кбит/сек
Каналы : 2 канала
Расположение каналов : Front: L R
Частота : 48,0 КГц
Частота кадров : 31,250 кадров/сек (1536 spf)
Битовая глубина : 16 бит
Метод сжатия : С потерями
Размер потока : 128 Мбайт (1%)
Заголовок : AVO (Василий Горчаков)
Язык : Russian
Default : Нет
Forced : Нет

Аудио #4
Идентификатор : 5
Формат : DTS
Формат/Информация : Digital Theater Systems
Режим : 16
Параметр Endianness формата : Big
Идентификатор кодека : A_DTS
Продолжительность : 1 ч. 33 м.
Вид битрейта : Постоянный
Битрейт : 1509 Кбит/сек
Каналы : 2 канала
Расположение каналов : Front: L R
Частота : 48,0 КГц
Частота кадров : 93,750 кадра/сек (512 spf)
Битовая глубина : 24 бит
Метод сжатия : С потерями
Размер потока : 1004 Мбайт (8%)
Заголовок : original
Язык : English
Default : Нет
Forced : Нет

Меню #1
00:00:00.000 : en:00:00:00.000
00:08:08.521 : en:00:08:08.521
00:16:42.001 : en:00:16:42.001
00:21:36.562 : en:00:21:36.562
00:25:51.583 : en:00:25:51.583
00:31:44.302 : en:00:31:44.302
00:37:43.661 : en:00:37:43.661
00:44:07.979 : en:00:44:07.979
00:51:20.077 : en:00:51:20.077
00:56:19.376 : en:00:56:19.376
01:04:49.252 : en:01:04:49.252
01:09:23.860 : en:01:09:23.860
01:14:39.442 : en:01:14:39.442
01:24:42.644 : en:01:24:42.644
01:26:59.881 : en:01:26:59.881

Меню #2
00:00:00.000 : en:Chapter 01
00:08:16.655 : en:Chapter 02
00:16:21.657 : en:Chapter 03
00:24:03.066 : en:Chapter 04
00:30:36.167 : en:Chapter 05
00:36:37.737 : en:Chapter 06
00:45:34.106 : en:Chapter 07
00:53:23.872 : en:Chapter 08
01:16:55.894 : en:Chapter 09
01:29:12.579 : en:Chapter 10
pb.wtf



Скачать Святые узы брака через торрент http://s41.radikal.ru/i091/1701/14/15eaa2116ccd.jpg Скачать фильм Святые узы брака через торрент бесплантно в хорошем качестве Описание: Эффектная блондинка Гавана ограбила вместе со своим приятелем Питером кассу парка развлечений. Пустившись в бега, они укрылись в ... 5.5 10 2
Info! Золотая раздача, скачанное не засчитывается.
Торрент: Зарегистрирован [2017-02-02 06:11] · скачан: 11 раз
Статус: √ проверено
Размер: 11.86 GB
Как cкачать? Как скачать Святые узы брака через торрент | qTorrent

% Раздел Тема Автор DL S | L
Фильмы [HD 720p, 1080p] (Хороший звук DUB, MVO) [ 4.4 GB ] Святые узы брака / Holy Matrimony [1994 BDRip 720p by msltel] MVO DVO AVO msltel Скачать
1 | 0

28-11-2019 20:33  

Отключить всю рекламу на сайте

02-02-2017 06:27 Святые узы брака Скачать торрент  

мне кажется, не я один видел этот фильм в 90 е, по скету)pb.wtf



    Дорогой пользователь! Огромная просьба, поблагодарите релизера, оцените раздачу и оставьте свои комментарий, если Вы скачали Святые узы брака через торрент бесплатно! Внесите свою лепту в развитие PiratBit!
    Комментировать посты могут только пользователи прошедшие не сложную регистрацию
    Показать сообщения:    

    Святые узы брака через торрент
    Скачать бесплатно Святые узы брака
    Святые узы брака скачать торрент
    Святые узы брака смотреть онлайн
    Cкачать фильм Святые узы брака бесплатно
    Святые узы брака скачать торрент в хорошем качестве
    Святые узы брака смотреть онлайн бесплатно в хорошем качестве


    Вы не можете начинать темы
    Вы не можете отвечать на сообщения
    Вы не можете редактировать свои сообщения
    Вы не можете удалять свои сообщения
    Вы не можете голосовать в опросах
    Вы не можете прикреплять файлы к сообщениям
    Вы можете скачивать файлы