Ссылка на приватное зеркало нашего сайта всего за 1$. Внимание количество ограничено!!!

2 сезон

iTunes

1 сезон

1

iTunes

iTunes

iTunes

1 сезон

RePack

30

ИГРА 18+

pack

ВАЖНО

!!Акция!!

Alien_RageХит недели

RePack

MK11
pack

Забери бонус

RePack

jed

!!Акция!!

Alien_Rage

RePack

fifa19

RePack

Assassins Creed: Odyssey

RePack

NEED FOR SPEED™ PAYBACK

4 сезон

9 сезон

Бесстыжие 9 сезон

Все сериалы

все сериалы на PB.wtf

RePack

FAR CRY 5
  

Открытый простор / Open Range (Кевин Костнер) [2003, боевик, мелодрама, вестерн, BDRip 1080p by msltel] DUB, 3 x MVO pb.wtf

Открытый простор через торрент pb.wtf

Размер: 15.22 GB | Добавлен: 3 года 8 мес. назад | Торрент скачан:55 раз
Скачать  

02-02-2017 07:00 Открытый простор Скачать торрент  

Название: Открытый простор
Оригинальное название: Open Range
Год выпуска: 2003
Страна: США
Жанр: боевик, мелодрама, вестерн
Продолжительность: 02:18:53
Перевод: дублированный, профессиональный многоголосый

Режиссёр: Кевин Костнер

В ролях: Роберт Дювалл, Кевин Костнер, Аннетт Бенинг, Майкл Гэмбон, Майкл Джитер, Диего Луна, Джеймс Руссо, Абрахам Бенруби, Дин МакДермотт, Ким Коутс

Описание: Лишь на бескрайних просторах Чарли Уэйт и Босс Спирмэн чувствуют воздух свободы. Смутное прошлое заставляет их оставаться в седле, сторонясь городов и людей. Но что-то меняется в душе одиночки Уэйта, когда он встречает Сью Барлоу там, где кое-кто взялся вершить свой закон. И когда напарники оказались связаны местью, то были уверены только в одном: что не станут бежать от опасности никогда!...



Качество: BDRip 1080p
Формат: MKV
Видео: MPEG-4 AVC, 12.2 Mбит/с, 1920x816, 23,976 кадра/с
Аудио 1: русский, DTS, 768 kbps, 6 ch, 48 kHz [дублированный, R5]
Аудио 2: русский, AC3, 448 kbps, 6 ch, 48 kHz [профессиональный многоголосый, вариант 1]
Аудио 3: русский, AC3, 384 kbps, 6 ch, 48 kHz [профессиональный многоголосый, вариант 2]
Аудио 4: русский, AC3, 384 kbps, 6 ch, 48 kHz [профессиональный многоголосый, Держиморда Фильмс]
Аудио 5: английский, DTS, 1509 kbps, 6 ch, 48 kHz [оригинал]
Субтитры 1: русские
Субтитры 2: английские
Имеются неименованные главы/чаптеры.
Общее
Уникальный идентификатор : 218072917988451343106560949590869608496 (0xA40F50F7D1215986A3AD976827770830)
Полное имя : D:\Video\Открытый простор.2003.BDRip.1080p by msltel.mkv
Формат : Matroska
Версия формата : Version 4 / Version 2
Размер файла : 15,2 Гбайт
Продолжительность : 2 ч. 18 м.
Общий поток : 15,7 Мбит/сек
Название фильма : Rip by msltel
Дата кодирования : UTC 2017-02-02 05:31:13
Программа кодирования : mkvmerge v8.2.0 ('World of Adventure') 64bit
Библиотека кодирования : libebml v1.3.1 + libmatroska v1.4.2

Видео
Идентификатор : 1
Формат : AVC
Формат/Информация : Advanced Video Codec
Профиль формата : High@L4.1
Параметр CABAC формата : Да
Параметр ReFrames формата : 4 кадра
Идентификатор кодека : V_MPEG4/ISO/AVC
Продолжительность : 2 ч. 18 м.
Битрейт : 12,2 Мбит/сек
Ширина : 1920 пикселей
Высота : 816 пикселей
Соотношение сторон : 2,35:1
Режим частоты кадров : Постоянный
Частота кадров : 23,976 (24000/1001) кадра/сек
Цветовое пространство : YUV
Субдискретизация насыщенности : 4:2:0
Битовая глубина : 8 бит
Тип развёртки : Прогрессивная
Бит/(Пиксели*Кадры) : 0.325
Размер потока : 11,8 Гбайт (78%)
Библиотека кодирования : x264 core 146 r2538 121396c
Настройки программы : cabac=1 / ref=4 / deblock=1:-3:-2 / analyse=0x3:0x113 / me=umh / subme=11 / psy=1 / psy_rd=1.00:0.15 / mixed_ref=1 / me_range=32 / chroma_me=1 / trellis=2 / 8x8dct=1 / cqm=0 / deadzone=21,11 / fast_pskip=0 / chroma_qp_offset=-3 / threads=6 / lookahead_threads=1 / sliced_threads=0 / nr=0 / decimate=1 / interlaced=0 / bluray_compat=0 / constrained_intra=0 / bframes=10 / b_pyramid=2 / b_adapt=2 / b_bias=0 / direct=1 / weightb=1 / open_gop=0 / weightp=2 / keyint=230 / keyint_min=23 / scenecut=40 / intra_refresh=0 / rc_lookahead=40 / rc=crf / mbtree=0 / crf=18.2 / qcomp=0.60 / qpmin=0 / qpmax=69 / qpstep=4 / vbv_maxrate=62500 / vbv_bufsize=78125 / crf_max=0.0 / nal_hrd=none / filler=0 / ip_ratio=1.40 / pb_ratio=1.30 / aq=1:1.00
Язык : English
Default : Да
Forced : Нет

Аудио #1
Идентификатор : 2
Формат : DTS
Формат/Информация : Digital Theater Systems
Режим : 16
Параметр Endianness формата : Big
Идентификатор кодека : A_DTS
Продолжительность : 2 ч. 18 м.
Вид битрейта : Постоянный
Битрейт : 755 Кбит/сек
Каналы : 6 каналов
Расположение каналов : Front: L C R, Side: L R, LFE
Частота : 48,0 КГц
Частота кадров : 93,750 кадра/сек (512 spf)
Битовая глубина : 24 бит
Метод сжатия : С потерями
Размер потока : 750 Мбайт (5%)
Заголовок : DUB (R5)
Язык : Russian
Default : Да
Forced : Нет

Аудио #2
Идентификатор : 3
Формат : AC-3
Формат/Информация : Audio Coding 3
Расширение режима : CM (complete main)
Параметр Endianness формата : Big
Идентификатор кодека : A_AC3
Продолжительность : 2 ч. 18 м.
Вид битрейта : Постоянный
Битрейт : 448 Кбит/сек
Каналы : 6 каналов
Расположение каналов : Front: L C R, Side: L R, LFE
Частота : 48,0 КГц
Частота кадров : 31,250 кадров/сек (1536 spf)
Битовая глубина : 16 бит
Метод сжатия : С потерями
Размер потока : 445 Мбайт (3%)
Заголовок : MVO (вариант 1)
Язык : Russian
Default : Нет
Forced : Нет

Аудио #3
Идентификатор : 4
Формат : AC-3
Формат/Информация : Audio Coding 3
Расширение режима : CM (complete main)
Параметр Endianness формата : Big
Идентификатор кодека : A_AC3
Продолжительность : 2 ч. 18 м.
Вид битрейта : Постоянный
Битрейт : 384 Кбит/сек
Каналы : 6 каналов
Расположение каналов : Front: L C R, Side: L R, LFE
Частота : 48,0 КГц
Частота кадров : 31,250 кадров/сек (1536 spf)
Битовая глубина : 16 бит
Метод сжатия : С потерями
Размер потока : 381 Мбайт (2%)
Заголовок : MVO (вариант 2)
Язык : Russian
Default : Нет
Forced : Нет

Аудио #4
Идентификатор : 5
Формат : AC-3
Формат/Информация : Audio Coding 3
Расширение режима : CM (complete main)
Параметр Endianness формата : Big
Идентификатор кодека : A_AC3
Продолжительность : 2 ч. 18 м.
Вид битрейта : Постоянный
Битрейт : 384 Кбит/сек
Каналы : 6 каналов
Расположение каналов : Front: L C R, Side: L R, LFE
Частота : 48,0 КГц
Частота кадров : 31,250 кадров/сек (1536 spf)
Битовая глубина : 16 бит
Метод сжатия : С потерями
Размер потока : 381 Мбайт (2%)
Заголовок : MVO (Держиморда Фильмс)
Язык : Russian
Default : Нет
Forced : Нет

Аудио #5
Идентификатор : 6
Формат : DTS
Формат/Информация : Digital Theater Systems
Режим : 16
Параметр Endianness формата : Big
Идентификатор кодека : A_DTS
Продолжительность : 2 ч. 18 м.
Вид битрейта : Постоянный
Битрейт : 1509 Кбит/сек
Каналы : 6 каналов
Расположение каналов : Front: L C R, Side: L R, LFE
Частота : 48,0 КГц
Частота кадров : 93,750 кадра/сек (512 spf)
Битовая глубина : 16 бит
Метод сжатия : С потерями
Размер потока : 1,46 Гбайт (10%)
Заголовок : original
Язык : English
Default : Нет
Forced : Нет

Текст #1
Идентификатор : 7
Формат : UTF-8
Идентификатор кодека : S_TEXT/UTF8
Идентификатор кодека/Информация : UTF-8 Plain Text
Продолжительность : 2 ч. 13 м.
Битрейт : 61 бит/сек
Count of elements : 1266
Размер потока : 60,6 Кбайт (0%)
Заголовок : русские
Язык : Russian
Default : Нет
Forced : Нет

Текст #2
Идентификатор : 8
Формат : UTF-8
Идентификатор кодека : S_TEXT/UTF8
Идентификатор кодека/Информация : UTF-8 Plain Text
Продолжительность : 2 ч. 12 м.
Битрейт : 48 бит/сек
Count of elements : 1559
Размер потока : 46,8 Кбайт (0%)
Заголовок : английские
Язык : English
Default : Нет
Forced : Нет

Меню
00:00:00.000 : :Chapter 01
00:07:54.182 : :Chapter 02
00:16:02.542 : :Chapter 03
00:26:34.009 : :Chapter 04
00:33:56.366 : :Chapter 05
00:41:22.313 : :Chapter 06
00:53:03.471 : :Chapter 07
01:01:53.083 : :Chapter 08
01:11:01.090 : :Chapter 09
01:21:02.314 : :Chapter 10
01:30:26.462 : :Chapter 11
01:39:41.641 : :Chapter 12
01:50:17.860 : :Chapter 13
01:59:32.206 : :Chapter 14
02:07:54.832 : :Chapter 15
02:14:14.503 : :Chapter 16
02:18:53.656 : :Chapter 17
pb.wtf



Скачать Открытый простор через торрент http://s009.radikal.ru/i307/1701/36/646d80e8a5fa.jpg Скачать фильм Открытый простор через торрент бесплантно в хорошем качестве Описание: Лишь на бескрайних просторах Чарли Уэйт и Босс Спирмэн чувствуют воздух свободы. Смутное прошлое заставляет их оставаться в ... 10 10 3
Info! Золотая раздача, скачанное не засчитывается.
Торрент: Зарегистрирован [2017-02-02 07:00] · скачан: 55 раз
Статус: √ проверено
Размер: 15.22 GB
Как cкачать? Как скачать Открытый простор через торрент | qTorrent

% Раздел Тема Автор DL S | L
Фильмы [HD 720p, 1080p] (Хороший звук DUB, MVO) [ 6.84 GB ] Открытый простор / Open Range [2003 BDRip 720p by msltel] DUB 3 x MVO msltel Скачать
1 | 0

28-11-2019 20:33  

Отключить всю рекламу на сайте

    Дорогой пользователь! Огромная просьба, поблагодарите релизера, оцените раздачу и оставьте свои комментарий, если Вы скачали Открытый простор через торрент бесплатно! Внесите свою лепту в развитие PiratBit!
    Комментировать посты могут только пользователи прошедшие не сложную регистрацию
    Показать сообщения:    

    Открытый простор через торрент
    Скачать бесплатно Открытый простор
    Открытый простор скачать торрент
    Открытый простор смотреть онлайн
    Cкачать фильм Открытый простор бесплатно
    Открытый простор скачать торрент в хорошем качестве
    Открытый простор смотреть онлайн бесплатно в хорошем качестве


    Вы не можете начинать темы
    Вы не можете отвечать на сообщения
    Вы не можете редактировать свои сообщения
    Вы не можете удалять свои сообщения
    Вы не можете голосовать в опросах
    Вы не можете прикреплять файлы к сообщениям
    Вы можете скачивать файлы