новый адрес пиратбит piratbit
Мега распродажа FORZA HORIZON 4 ULTIMATE+ВСЕ DLC+ОНЛАЙН всего за 499р. 349 руб. (супер цена). Внимание количество ограничено!!!

iTunes

1+1

iTunes

мы

iTunes

1

iTunes

Чернобыль

iTunes

Ральф против интернета

Лицензия

ПШазам

Лицензия

Игра престолов

Лицензия

30
pack

ВАЖНО

!!Акция!!

Alien_RageХит недели

RePack

Resident Evil 21

ИГРА 18+

pack

RePack

Metro:Exodus

!!Акция!!

Alien_Rage

RePack

fifa19

RePack

Assassins Creed: Odyssey

RePack

NEED FOR SPEED™ PAYBACK

3 сезон

9 сезон

Бесстыжие 9 сезон

Все сериалы

все сериалы на PB.wtf

RePack

FAR CRY 5
Ребята, катастрофически не хватает 1900р. для оплаты серверов за Октябрь (всвязи с блокировками трафик упал в 3 раза), 1-2р., выручайте.
  

Дело было в Пенькове (Станислав Ростоцкий) [1957, драма, мелодрама, DVDRip от AVP Studio] pb.wtf

Дело было в Пенькове через торрент pb.wtf

Размер: 1.45 GB | Добавлен: 2 года 9 мес. назад | Торрент скачан:20 раз
Скачать  

02-02-2017 09:24 Дело было в Пенькове Скачать торрент  

Дело было в Пенькове
Страна: СССР
Производство: Студия Горького
Жанр: драма, мелодрама
Год выпуска: 1957
Продолжительность: 01:34:13

Перевод: не требуется
Оригинальная аудиодорожка: русский
Cубтитры: нет

Режиссер: Станислав Ростоцкий

В ролях:
Вячеслав Тихонов, Светлана Дружинина, Валентина Телегина, Анатолий Кубацкий, Юрий Медведев и другие.
Об актёрах подробней

Описание:
В родное село возвращается из мест «не столь отдаленных» лихой тракторист Матвей Морозов. И вспоминается ему история его женитьбы, его роковой любви, несостоявшейся измены и совершенного сгоряча «преступления», в котором он нисколько не раскаивается. Первый парень на деревне, Матвей Морозов был настоящей головной болью для председателя колхоза. Правда, работал за десятерых, но горазд был на всякие выдумки. Да к тому же полюбила его председательская дочка Лариса. Очередной выходкой Матвея были «гонки» на тракторах с передовиком производства Зефировым, в результате чего был сломан трактор. Чуть было не отдали Матвея под суд, да вместо этого пришлось играть его свадьбу с Ларисой. А потом поползли по селу слухи о «дружбе» Матвея с новым зоотехником Тоней. Жутко взревновала Лариса и задумала извести соперницу. Да еще бабка Алевтина — местная сплетница и самогонщица — подлила масла в огонь, выложив новые сведения о Матвее и Тоне…

Исходник: DVD5 R5
Тип релиза: DVDRip
Контейнер: AVI

Видео: 688x528 (4:3), 25 fps, XviD ~ 1816 kbps avg, 0.200 bit/pixel
Аудио: 48 kHz, Dolby AC3 5.1, 384 kbps

Раздача от:
Общее
Полное имя : Delo.bylo.v.Pen'kove.1957.DVDRip_[Youtracker]_by_AVP Studio.avi
Формат : AVI
Формат/Информация : Audio Video Interleave
Размер файла : 1,45 Гбайт
Продолжительность : 1 ч. 34 м.
Общий поток : 2210 Кбит/сек
Программа кодирования : VirtualDubMod 1.5.10.3 | www.virtualdub-fr.org || (build 2550/release)
Библиотека кодирования : VirtualDubMod build 2550/release

Видео
Идентификатор : 0
Формат : MPEG-4 Visual
Профиль формата : Advanced Simple@L5
Параметр BVOP формата : 1
Параметр QPel формата : Нет
Параметр GMC формата : Без точки перехода
Параметр матрицы формата : Выборочная
Идентификатор кодека : XVID
Идентификатор кодека/Подсказка : XviD
Продолжительность : 1 ч. 34 м.
Битрейт : 1816 Кбит/сек
Ширина : 688 пикселей
Высота : 528 пикселей
Соотношение сторон : 4:3
Частота кадров : 25,000 кадров/сек
Цветовое пространство : YUV
Субдискретизация насыщенности : 4:2:0
Битовая глубина : 8 бит
Тип развёртки : Прогрессивная
Метод сжатия : С потерями
Бит/(Пиксели*Кадры) : 0.200
Размер потока : 1,20 Гбайт (82%)
Библиотека кодирования : XviD 65

Аудио
Идентификатор : 1
Формат : AC-3
Формат/Информация : Audio Coding 3
Расширение режима : CM (complete main)
Идентификатор кодека : 2000
Продолжительность : 1 ч. 34 м.
Вид битрейта : Постоянный
Битрейт : 384 Кбит/сек
Каналы : 6 каналов
Расположение каналов : Front: L C R, Side: L R, LFE
Частота : 48,0 КГц
Битовая глубина : 16 бит
Метод сжатия : С потерями
Размер потока : 259 Мбайт (17%)
Выравнивание : Разделение по промежуткам
Продолжительность промежутка : 40 мс. (1,00 видеокадр)
Время предзагрузки промежутка : 500 мс
pb.wtf



Скачать Дело было в Пенькове через торрент http://s4.hostingkartinok.com/uploads/images/2013/02/7572b4efe669ba509c32a383acb9211a.png Скачать фильм Дело было в Пенькове через торрент бесплантно в хорошем качестве Описание:В родное село возвращается из мест «не столь отдаленных» лихой тракторист Матвей Морозов. И вспоминается ему история его женитьбы, ... 5 10 1
Info! Золотая раздача, скачанное не засчитывается.
Торрент: Зарегистрирован [2017-02-02 09:24] · скачан: 20 раз
Статус: √ проверено
Размер: 1.45 GB
Как cкачать? Как скачать Дело было в Пенькове через торрент | qTorrent

% Раздел Тема Автор DL S | L
Кино СССР [ 1.46 GB ] Дело было в Пенькове [1957 DVDRip-AVC от AVP Studio] AVP Studio Скачать
1 | 0
Кино СССР [ 745 MB ] Дело было в Пенькове [1957 DVDRip от AVP Studio] AVP Studio Скачать
1 | 0


>> Регистрируемся здесь <<






Отзывы и комментарии о схеме читаем и пишем здесь: ---> Отзывы и комментарии о схеме

Новые благодарочки в телеграм довольных пользователей:
скриншот   скриншот   скриншот   скриншот   скриншот
    Дорогой пользователь! Огромная просьба, поблагодарите релизера, оцените раздачу и оставьте свои комментарий, если Вы скачали Дело было в Пенькове через торрент бесплатно! Внесите свою лепту в развитие PiratBit!
    Комментировать посты могут только пользователи прошедшие не сложную регистрацию
    Показать сообщения:    

    Дело было в Пенькове через торрент
    Скачать бесплатно Дело было в Пенькове
    Дело было в Пенькове скачать торрент
    Дело было в Пенькове смотреть онлайн
    Cкачать фильм Дело было в Пенькове бесплатно
    Дело было в Пенькове скачать торрент в хорошем качестве
    Дело было в Пенькове смотреть онлайн бесплатно в хорошем качестве


    Вы не можете начинать темы
    Вы не можете отвечать на сообщения
    Вы не можете редактировать свои сообщения
    Вы не можете удалять свои сообщения
    Вы не можете голосовать в опросах
    Вы не можете прикреплять файлы к сообщениям
    Вы можете скачивать файлы