новый адрес
Мега распродажа FORZA HORIZON 4 ULTIMATE+ВСЕ DLC+ОНЛАЙН всего за 499р. 349 руб. (супер цена). Внимание количество ограничено!!!

iTunes

1+1

iTunes

мы

iTunes

1

iTunes

Чернобыль

iTunes

Ральф против интернета

Лицензия

ПШазам

Лицензия

Оно 2

Лицензия

30
pack

ВАЖНО

!!Акция!!

Alien_RageХит недели

RePack

Resident Evil 21

ИГРА 18+

pack

RePack

Metro:Exodus

!!Акция!!

Alien_Rage

RePack

fifa19

RePack

Assassins Creed: Odyssey

RePack

NEED FOR SPEED™ PAYBACK

3 сезон

9 сезон

Бесстыжие 9 сезон

Все сериалы

все сериалы на PB.wtf

RePack

FAR CRY 5
Ребята, катастрофически не хватает 1900р. для оплаты серверов за Октябрь (всвязи с блокировками трафик упал в 3 раза), 1-2р., выручайте.
  

Дело было в Пенькове (Станислав Ростоцкий) [1957, драма, мелодрама, DVDRip-AVC от AVP Studio] pb.wtf

Дело было в Пенькове через торрент pb.wtf

Раздают: 1 [ 0 KB/s ]
Размер: 1.46 GB | Добавлен: 2 года 9 мес. назад | Торрент скачан:102 раза
Скачать  

02-02-2017 09:26 Дело было в Пенькове Скачать торрент  

Дело было в Пенькове
Страна: СССР
Производство: Студия Горького
Жанр: драма, мелодрама
Год выпуска: 1957
Продолжительность: 01:34:13

Перевод: не требуется
Оригинальная аудиодорожка: русский
Cубтитры: нет

Режиссер: Станислав Ростоцкий

В ролях:
Вячеслав Тихонов, Светлана Дружинина, Валентина Телегина, Анатолий Кубацкий, Юрий Медведев и другие.
Об актёрах подробней

Описание:
В родное село возвращается из мест «не столь отдаленных» лихой тракторист Матвей Морозов. И вспоминается ему история его женитьбы, его роковой любви, несостоявшейся измены и совершенного сгоряча «преступления», в котором он нисколько не раскаивается. Первый парень на деревне, Матвей Морозов был настоящей головной болью для председателя колхоза. Правда, работал за десятерых, но горазд был на всякие выдумки. Да к тому же полюбила его председательская дочка Лариса. Очередной выходкой Матвея были «гонки» на тракторах с передовиком производства Зефировым, в результате чего был сломан трактор. Чуть было не отдали Матвея под суд, да вместо этого пришлось играть его свадьбу с Ларисой. А потом поползли по селу слухи о «дружбе» Матвея с новым зоотехником Тоней. Жутко взревновала Лариса и задумала извести соперницу. Да еще бабка Алевтина — местная сплетница и самогонщица — подлила масла в огонь, выложив новые сведения о Матвее и Тоне…

Исходник: DVD5 R5
Тип релиза: DVDRip-AVC
Контейнер: MKV

Видео: 688->760x570 (4:3), 25 fps, H264 ~ 1831 kbps avg, 0.187 bit/pixel
Аудио: 48 kHz, Dolby AC3 5.1, 384 kbps

Раздача от:
Общее
Полное имя : Delo.bylo.v.Penkove.1957.DVDRip-AVC_[New-team]_by_AVP_Studio.mkv
Формат : Matroska
Версия формата : Version 2
Размер файла : 1,46 Гбайт
Продолжительность : 1 ч. 34 м.
Общий поток : 2217 Кбит/сек
Дата кодирования : UTC 2017-01-31 14:38:12
Программа кодирования : mkvmerge v6.1.0 ('Old Devil') built on Mar 4 2013 09:10:42
Библиотека кодирования : libebml v1.3.0 + libmatroska v1.4.0

Видео
Идентификатор : 1
Формат : AVC
Формат/Информация : Advanced Video Codec
Профиль формата : High@L4.1
Параметр CABAC формата : Да
Параметр ReFrames формата : 10 кадров
Идентификатор кодека : V_MPEG4/ISO/AVC
Продолжительность : 1 ч. 34 м.
Битрейт : 1831 Кбит/сек
Ширина : 688 пикселей
Высота : 570 пикселей
Соотношение сторон : 4:3
Режим частоты кадров : Постоянный
Частота кадров : 25,000 кадров/сек
Цветовое пространство : YUV
Субдискретизация насыщенности : 4:2:0
Битовая глубина : 8 бит
Тип развёртки : Прогрессивная
Бит/(Пиксели*Кадры) : 0.187
Размер потока : 1,18 Гбайт (81%)
Библиотека кодирования : x264 core 148 r2597 e86f3a1
Настройки программы : cabac=1 / ref=10 / deblock=1:-2:-1 / analyse=0x3:0x113 / me=umh / subme=10 / psy=1 / psy_rd=1.00:0.00 / mixed_ref=1 / me_range=32 / chroma_me=1 / trellis=2 / 8x8dct=1 / cqm=0 / deadzone=21,11 / fast_pskip=1 / chroma_qp_offset=-2 / threads=6 / lookahead_threads=1 / sliced_threads=0 / nr=0 / decimate=0 / interlaced=0 / bluray_compat=0 / constrained_intra=0 / bframes=8 / b_pyramid=2 / b_adapt=2 / b_bias=0 / direct=3 / weightb=1 / open_gop=0 / weightp=2 / keyint=250 / keyint_min=25 / scenecut=40 / intra_refresh=0 / rc=2pass / mbtree=0 / bitrate=1831 / ratetol=1.0 / qcomp=0.60 / qpmin=0 / qpmax=69 / qpstep=4 / cplxblur=20.0 / qblur=0.5 / ip_ratio=1.40 / pb_ratio=1.30 / aq=1:1.00
Default : Да
Forced : Нет

Аудио
Идентификатор : 2
Формат : AC-3
Формат/Информация : Audio Coding 3
Расширение режима : CM (complete main)
Параметр Endianness формата : Big
Идентификатор кодека : A_AC3
Продолжительность : 1 ч. 34 м.
Вид битрейта : Постоянный
Битрейт : 384 Кбит/сек
Каналы : 6 каналов
Расположение каналов : Front: L C R, Side: L R, LFE
Частота : 48,0 КГц
Частота кадров : 31,250 кадров/сек (1536 spf)
Битовая глубина : 16 бит
Метод сжатия : С потерями
Размер потока : 259 Мбайт (17%)
Default : Да
Forced : Нет
pb.wtf



Скачать Дело было в Пенькове через торрент http://s4.hostingkartinok.com/uploads/images/2013/02/7572b4efe669ba509c32a383acb9211a.png Скачать фильм Дело было в Пенькове через торрент бесплантно в хорошем качестве Описание:В родное село возвращается из мест «не столь отдаленных» лихой тракторист Матвей Морозов. И вспоминается ему история его женитьбы, ... 10 10 6
Info! Золотая раздача, скачанное не засчитывается.
Торрент: Зарегистрирован [2017-02-02 09:26] · скачан: 102 раз
Статус: √ проверено
Размер: 1.46 GB
Как cкачать? Как скачать Дело было в Пенькове через торрент | qTorrent

% Раздел Тема Автор DL S | L
Кино СССР [ 745 MB ] Дело было в Пенькове [1957 DVDRip от AVP Studio] AVP Studio Скачать
1 | 0
Кино СССР [ 1.45 GB ] Дело было в Пенькове [1957 DVDRip от AVP Studio] AVP Studio Скачать
1 | 0


>> Регистрируемся здесь <<






Отзывы и комментарии о схеме читаем и пишем здесь: ---> Отзывы и комментарии о схеме

Новые благодарочки в телеграм довольных пользователей:
скриншот   скриншот   скриншот   скриншот   скриншот

02-02-2017 10:54 Дело было в Пенькове Скачать торрент  

фильм хороший, но к чему вот эта его раздача?
Дело было в Пенькове pb.wtf



02-02-2017 11:07 Дело было в Пенькове Скачать торрент  

mrAmerica писал(а):

фильм хороший, но к чему вот эта его раздача?
Дело было в Пенькове

Вы хотите что бы я объяснил чем отличается DVDRip от DVDRip-AVC? Ну извиняйте, придется Вам самому это изучить...pb.wtf



    Дорогой пользователь! Огромная просьба, поблагодарите релизера, оцените раздачу и оставьте свои комментарий, если Вы скачали Дело было в Пенькове через торрент бесплатно! Внесите свою лепту в развитие PiratBit!
    Комментировать посты могут только пользователи прошедшие не сложную регистрацию
    Показать сообщения:    

    Дело было в Пенькове через торрент
    Скачать бесплатно Дело было в Пенькове
    Дело было в Пенькове скачать торрент
    Дело было в Пенькове смотреть онлайн
    Cкачать фильм Дело было в Пенькове бесплатно
    Дело было в Пенькове скачать торрент в хорошем качестве
    Дело было в Пенькове смотреть онлайн бесплатно в хорошем качестве


    Вы не можете начинать темы
    Вы не можете отвечать на сообщения
    Вы не можете редактировать свои сообщения
    Вы не можете удалять свои сообщения
    Вы не можете голосовать в опросах
    Вы не можете прикреплять файлы к сообщениям
    Вы можете скачивать файлы