2 сезон

iTunes

1 сезон

1

iTunes

iTunes

iTunes

1 сезон

RePack

30

ИГРА 18+

pack

ВАЖНО

!!Акция!!

Alien_RageХит недели

RePack

MK11
pack

Забери бонус

RePack

jed

!!Акция!!

Alien_Rage

RePack

fifa19

RePack

Assassins Creed: Odyssey

RePack

NEED FOR SPEED™ PAYBACK

4 сезон

9 сезон

Бесстыжие 9 сезон

Все сериалы

все сериалы на PB.wtf

RePack

FAR CRY 5
  

Джек Ричер 2: Никогда не возвращайся / Jack Reacher: Never Go Back (Эдвард Цвик ) [2016, боевик, триллер, криминал, BDRip 720p от potroks] Лицензия pb.wtf

Джек Ричер 2: Никогда не возвращайся через торрент pb.wtf

Размер: 5.76 GB | Добавлен: 3 года 8 мес. назад | Торрент скачан:1181 раз
Скачать  

03-02-2017 08:24 Джек Ричер 2: Никогда не возвращайся Скачать торрент  

Джек Ричер 2: Никогда не возвращайся / Jack Reacher: Never Go Back

Год выпуска: 2016
Страна: Китай, США / Paramount Pictures....
Жанр: боевик, триллер, криминал, детектив, приключения
Продолжительность: 01:58:08
Перевод: Дубляж [Blu-ray CEE]
Субтитры: русские (полные + форс.), английские (Full + SDH + SDH-Colored)
Навигация по главам: есть
Режиссер: Эдвард Цвик
В ролях:

Том Круз (Jack Reacher), Коби Смолдерс (Turner), Элдис Ходж (Espin), Даника Ярош (Samantha), Патрик Хьюсингер (The Hunter), Холт МакКэллани (Col. Morgan), Джудд Лорманд (Local Deputy), Кристофер Берри (Onlooker at Diner), Хантер Бурк (Onlooker at Diner), Джейсон Дуглас (Sheriff), Лизет Хатчингс (Smuggled Woman), Марисела Зумбадо (Smuggled Woman)
Описание: Экс-военный Джек Ричер приезжает в Вашингтон, чтобы впервые встретиться с майором Сьюзен Тернер, которая возглавила его бывшее подразделение и не раз выручала его в непростых ситуациях. По странному стечению обстоятельств буквально накануне его визита майора арестовывают по обвинению в измене... Ричеру, уверенному в невиновности Сьюзен, предстоит освободить ее и раскрыть заговор, ниточки которого тянутся на самый верх. Стремясь докопаться до правды, он также делает поразительное открытие, способное раз и навсегда изменить его жизнь...

Качество: BDRip 720p
Формат: MKV
Видео: AVC, 1280x536 (2.40:1), 5702 kbps, 23,976 fps, 0,347 bpp
Аудио №1: AC3 / 5.1 / 48 kHz / 640 kbps / 16 bit | RUS
Аудио №2: AC3 / 5.1 / 48 kHz / 640 kbps / 16 bit | ENG
General
Unique ID : 225893294979695643928715116615515913268 (0xA9F17752939E69FC9515BA05A62E3C34)
Complete name : D:\Dzhek.Richer.2.Hikogda.ne.Vozvraschaysya.2016.DUAL.BDRip.720p.-HELLYWOOD.mkv
Format : Matroska
Format version : Version 4 / Version 2
File size : 5.76 GiB
Duration : 1 h 58 min
Overall bit rate : 6 978 kb/s
Movie name : Jack Reacher: Never Go Back (2016)
Encoded date : UTC 2017-01-26 02:51:20
Writing application : mkvmerge v5.9.0 ('On The Loose') built on Dec 15 2012 16:39:58
Writing library : libebml v1.3.0 + libmatroska v1.4.0

Video
ID : 1
Format : AVC
Format/Info : Advanced Video Codec
Format profile : High@L4.1
Format settings, CABAC : Yes
Format settings, ReFrames : 9 frames
Codec ID : V_MPEG4/ISO/AVC
Duration : 1 h 58 min
Bit rate : 5 702 kb/s
Width : 1 280 pixels
Height : 536 pixels
Display aspect ratio : 2.40:1
Frame rate mode : Constant
Frame rate : 23.976 FPS
Color space : YUV
Chroma subsampling : 4:2:0
Bit depth : 8 bits
Scan type : Progressive
Bits/(Pixel*Frame) : 0.347
Stream size : 4.59 GiB (80%)
Title : potroks
Writing library : x264 core 146 r2538 121396c
Encoding settings : cabac=1 / ref=9 / deblock=1:-2:-2 / analyse=0x3:0x113 / me=umh / subme=11 / psy=1 / psy_rd=1.05:0.05 / mixed_ref=1 / me_range=48 / chroma_me=1 / trellis=2 / 8x8dct=1 / cqm=0 / deadzone=21,11 / fast_pskip=0 / chroma_qp_offset=-3 / threads=9 / lookahead_threads=2 / sliced_threads=0 / nr=0 / decimate=0 / interlaced=0 / bluray_compat=0 / constrained_intra=0 / bframes=12 / b_pyramid=2 / b_adapt=2 / b_bias=0 / direct=3 / weightb=1 / open_gop=0 / weightp=2 / keyint=240 / keyint_min=23 / scenecut=40 / intra_refresh=0 / rc_lookahead=60 / rc=2pass / mbtree=0 / bitrate=5702 / ratetol=1.0 / qcomp=0.70 / qpmin=0 / qpmax=69 / qpstep=4 / cplxblur=20.0 / qblur=0.5 / vbv_maxrate=14000 / vbv_bufsize=14000 / nal_hrd=none / filler=0 / ip_ratio=1.40 / pb_ratio=1.30 / aq=1:0.80
Language : English
Default : Yes
Forced : No

Audio #1
ID : 2
Format : AC-3
Format/Info : Audio Coding 3
Mode extension : CM (complete main)
Format settings, Endianness : Big
Codec ID : A_AC3
Duration : 1 h 58 min
Bit rate mode : Constant
Bit rate : 640 kb/s
Channel(s) : 6 channels
Channel positions : Front: L C R, Side: L R, LFE
Sampling rate : 48.0 kHz
Frame rate : 31.250 FPS (1536 spf)
Compression mode : Lossy
Stream size : 541 MiB (9%)
Title : Dub | DD 5.1 @ 640 kbps - Blu-ray CEE
Language : Russian
Default : Yes
Forced : No

Audio #2
ID : 3
Format : AC-3
Format/Info : Audio Coding 3
Mode extension : CM (complete main)
Format settings, Endianness : Big
Codec ID : A_AC3
Duration : 1 h 58 min
Bit rate mode : Constant
Bit rate : 640 kb/s
Channel(s) : 6 channels
Channel positions : Front: L C R, Side: L R, LFE
Sampling rate : 48.0 kHz
Frame rate : 31.250 FPS (1536 spf)
Compression mode : Lossy
Stream size : 541 MiB (9%)
Title : Original | DD 5.1 @ 640 kbps
Language : English
Default : No
Forced : No

Text #1
ID : 4
Format : UTF-8
Codec ID : S_TEXT/UTF8
Codec ID/Info : UTF-8 Plain Text
Title : Forced
Language : Russian
Default : Yes
Forced : No

Text #2
ID : 5
Format : UTF-8
Codec ID : S_TEXT/UTF8
Codec ID/Info : UTF-8 Plain Text
Title : iTunes
Language : Russian
Default : No
Forced : No

Text #3
ID : 6
Format : UTF-8
Codec ID : S_TEXT/UTF8
Codec ID/Info : UTF-8 Plain Text
Title : Full
Language : Russian
Default : No
Forced : No

Text #4
ID : 7
Format : UTF-8
Codec ID : S_TEXT/UTF8
Codec ID/Info : UTF-8 Plain Text
Title : SDH
Language : English
Default : No
Forced : No

Text #5
ID : 8
Format : UTF-8
Codec ID : S_TEXT/UTF8
Codec ID/Info : UTF-8 Plain Text
Title : SDH-Colored
Language : English
Default : No
Forced : No

Menu
00:00:00.000 : en:(01)00:00:00:000
00:07:00.627 : en:(02)00:07:00:627
00:15:19.876 : en:(03)00:15:19:876
00:20:33.856 : en:(04)00:20:33:856
00:29:04.576 : en:(05)00:29:04:576
00:34:35.739 : en:(06)00:34:35:739
00:42:40.139 : en:(07)00:42:40:139
00:49:28.005 : en:(08)00:49:28:005
00:58:44.561 : en:(09)00:58:44:561
01:03:10.161 : en:(10)01:03:10:161
01:09:35.753 : en:(11)01:09:35:753
01:15:05.332 : en:(12)01:15:05:332
01:21:59.662 : en:(13)01:21:59:662
01:27:07.220 : en:(14)01:27:07:220
01:34:14.064 : en:(15)01:34:14:064
01:46:44.855 : en:(16)01:46:44:855
01:53:30.845 : en:(17)01:53:30:845
01:58:08.706 : en:(18)01:58:08:706
pb.wtf



Скачать Джек Ричер 2: Никогда не возвращайся через торрент http://i90.fastpic.ru/big/2017/0203/b2/29dd581c4c5979f98140e7a7442ce2b2.png Скачать фильм Джек Ричер 2: Никогда не возвращайся через торрент бесплантно в хорошем качестве Описание: Экс-военный Джек Ричер приезжает в Вашингтон, чтобы впервые встретиться с майором Сьюзен Тернер, которая возглавила его бывшее ... 9.5 10 23
Info! Золотая раздача, скачанное не засчитывается.
Торрент: Зарегистрирован [2017-02-03 08:24] · скачан: 1 181 раз
Статус: √ проверено
Размер: 5.76 GB
Как cкачать? Как скачать Джек Ричер 2: Никогда не возвращайся через торрент | qTorrent

% Раздел Тема Автор DL S | L
Фильмы (HD 720p, 1080p) (48-60 fps) [ 3.01 GB ] Джек Ричер 2: Никогда не возвращайся / Jack Reacher: Never Go Back [2016 BDRip - HEVC 1080p 12 bit 60 FPS] - [] dd2d3 Скачать
3 | 0
Ultra HD (UHD: 2K, 4K, 8K) — видео сверхвысокой чёткости [ 58.42 GB ] Джек Ричер 2: Никогда не возвращайся / Jack Reacher: Never Go Back [2016 UHD BDRemux 2160p] DUB + 4xAVO [] sheker187 Скачать
1 | 0
Фильмы (Blu-ray, BD-Remux, HDDVD) [ 27.06 GB ] Джек Ричер 2: Никогда не возвращайся / Jack Reacher: Never Go Back [2016 BD Remux 1080p] [] DUB+AVO bober100 Скачать
1 | 0
Фильмы 2016 [DVDrip, WEB-DLRip, HDrip] (DUB, MVO) [ 4.02 GB ] Джек Ричер 2: Никогда не возвращайся / Jack Reacher: Never Go Back [2016 BDRip-AVC] - [] 4xAVO - ExKinoRay Enigma2010 Скачать
1 | 0
Ultra HD (UHD: 2K, 4K, 8K) — видео сверхвысокой чёткости [ 45.87 GB ] Джек Ричер 2: Никогда не возвращайся / Jack Reacher: Never Go Back [2016 UHD WEBRip 2160p] - [] sheker187 Скачать
2 | 0
Фильмы 2016 [DVDrip, WEB-DLRip, HDrip] (DUB, MVO) [ 1.41 GB ] Джек Ричер 2: Никогда не возвращайся / Jack Reacher: Never Go Back [2016 BDRip] - Twi7ter Скачать
1 | 0
Фильмы 2016 [DVDrip, WEB-DLRip, HDrip] (DUB, MVO) [ 1.46 GB ] Джек Ричер 2: Никогда не возвращайся / Jack Reacher: Never Go Back [2016 BDRip] - [] Twi7ter Скачать
1 | 0

28-11-2019 20:33  

Отключить всю рекламу на сайте

11-02-2017 17:54 Джек Ричер 2: Никогда не возвращайся Скачать торрент  

Не очень кинцо pb.wtf



23-03-2017 10:33 Джек Ричер 2: Никогда не возвращайся Скачать торрент  

нормальный фильмpb.wtf



    Дорогой пользователь! Огромная просьба, поблагодарите релизера, оцените раздачу и оставьте свои комментарий, если Вы скачали Джек Ричер 2: Никогда не возвращайся через торрент бесплатно! Внесите свою лепту в развитие PiratBit!
    Комментировать посты могут только пользователи прошедшие не сложную регистрацию
    Показать сообщения:    

    Джек Ричер 2: Никогда не возвращайся через торрент
    Скачать бесплатно Джек Ричер 2: Никогда не возвращайся
    Джек Ричер 2: Никогда не возвращайся скачать торрент
    Джек Ричер 2: Никогда не возвращайся смотреть онлайн
    Cкачать фильм Джек Ричер 2: Никогда не возвращайся бесплатно
    Джек Ричер 2: Никогда не возвращайся скачать торрент в хорошем качестве
    Джек Ричер 2: Никогда не возвращайся смотреть онлайн бесплатно в хорошем качестве


    Вы не можете начинать темы
    Вы не можете отвечать на сообщения
    Вы не можете редактировать свои сообщения
    Вы не можете удалять свои сообщения
    Вы не можете голосовать в опросах
    Вы не можете прикреплять файлы к сообщениям
    Вы можете скачивать файлы