Мега распродажа FORZA HORIZON 4 ULTIMATE+ВСЕ DLC+ОНЛАЙН всего за 499р. 349 руб. (супер цена). Внимание количество ограничено!!!

iTunes

1+1

iTunes

мы

iTunes

1

1 сезон

Чернобыль

1 сезон

Ральф против интернета

Лицензия

ПШазам

8 сезон

Игра престолов

Лицензия

30
pack

ВАЖНО

!!Акция!!

Alien_RageХит недели

RePack

Resident Evil 21

ИГРА 18+

pack

RePack

Metro:Exodus

!!Акция!!

Alien_Rage

RePack

fifa19

RePack

Assassins Creed: Odyssey

RePack

NEED FOR SPEED™ PAYBACK

3 сезон

9 сезон

Бесстыжие 9 сезон

Все сериалы

все сериалы на PB.wtf

RePack

FAR CRY 5
Ребята, катастрофически не хватает 2730р. для оплаты серверов за ИЮНЬ (всвязи с блокировками трафик упал в 3 раза), 1-2р., выручайте.
  

Конкорд: Аэропорт-79 / The Concorde: Airport '79 (Дэвид Лоуэлл Рич / David Lowell Rich) [1979, США, Боевик, триллер, драма, DVDRip] MVO (ТВ новости) pb.wtf

Конкорд: Аэропорт-79 через торрент pb.wtf

Размер: 1.46 GB | Добавлен: 2 года 5 мес. назад | Торрент скачан:6 раз
Скачать  

03-02-2017 09:20 Конкорд: Аэропорт-79 Скачать торрент  

Конкорд: Аэропорт-79 / The Concorde: Airport '79
«В два раза быстрее скорости звука, сможет Конкорд уклониться от атаки?»

Год выпуска: 1979
Страна: США / Universal Pictures
Жанр: Боевик, триллер, драма
Продолжительность: 01:48:37
Перевод: Профессиональный (многоголосый закадровый) ТВ новости
Cубтитры: нет

Режиссер: Дэвид Лоуэлл Рич / David Lowell Rich

В ролях: Ален Делон, Сьюзан Блейкли, Роберт Вагнер, Сильвия Кристель, Джордж Кеннеди, Эдди Альберт, Биби Андерссон, Чаро, Джон Дэвидсон, Андреа Марковиччи...

Описание: Для пилотов «Конкорда», как и для пассажиров, это самый обычный трансатлантический рейс из Вашингтона в Париж. Они еще не знают, что их ждет отказ навигационных систем, ракетная атака и вынужденная посадка в Альпах.
Самолет, следующий обычным рейсом Вашингтон-Париж, попадает в настоящий переплет: ему приходится спасаться от самонаводящейся ракеты, уходить от атаки французского истребителя и совершать вынужденную посадку при отсутствии тормозов.
А всему виной одна из пассажирок самолета Мэгги, которая везет с собой очень важные секретные документы, которые доказывают, что могущественная корпорация Харрисон Индастриз занимается производством ядерного оружия. Руководство компании намерено любой ценой помешать обнародованию этих документов…


Сэмпл: http://sendfile.su/1305218


Качество видео: DVDRip
Формат видео: AVI
Видео кодек: XviD
Аудио кодек: АС3
Видео: 720x384 (1.88:1), 25 fps, XviD build 73 ~1722 kbps avg, 0.25 bit/pixel
Аудио: 48 kHz, AC3 Dolby Digital, 2/0 (L,R) ch, ~192 kbps
Общее
Полное имя : F:\Konkord.Aeroport.'79.1979.DVDRip.1400.[Один 777].avi
Формат : AVI
Формат/Информация : Audio Video Interleave
Размер файла : 1,46 Гбайт
Продолжительность : 1 ч. 48 м.
Общий поток : 1925 Кбит/сек
Программа кодирования : VirtualDubMod 1.5.10.3 | www.virtualdub-fr.org || (build 2550/release)
Библиотека кодирования : VirtualDubMod build 2550/release

Видео
Идентификатор : 0
Формат : MPEG-4 Visual
Профиль формата : Advanced Simple@L5
Параметр BVOP формата : 1
Параметр QPel формата : Нет
Параметр GMC формата : Без точки перехода
Параметр матрицы формата : Default (H.263)
Идентификатор кодека : XVID
Идентификатор кодека/Подсказка : XviD
Продолжительность : 1 ч. 48 м.
Битрейт : 1723 Кбит/сек
Ширина : 720 пикселей
Высота : 384 пикселя
Соотношение сторон : 1,85:1
Частота кадров : 25,000 кадров/сек
Цветовое пространство : YUV
Субдискретизация насыщенности : 4:2:0
Битовая глубина : 8 бит
Тип развёртки : Прогрессивная
Метод сжатия : С потерями
Бит/(Пиксели*Кадры) : 0.249
Размер потока : 1,31 Гбайт (90%)
Библиотека кодирования : XviD 73

Аудио
Идентификатор : 1
Формат : AC-3
Формат/Информация : Audio Coding 3
Расширение режима : CM (complete main)
Параметр Endianness формата : Big
Идентификатор кодека : 2000
Продолжительность : 1 ч. 48 м.
Вид битрейта : Постоянный
Битрейт : 192 Кбит/сек
Каналы : 2 канала
Расположение каналов : Front: L R
Частота : 48,0 КГц
Частота кадров : 31,250 кадров/сек (1536 spf)
Метод сжатия : С потерями
Размер потока : 149 Мбайт (10%)
Выравнивание : Разделение по промежуткам
Продолжительность промежутка : 40 мс. (1,00 видеокадр)
Время предзагрузки промежутка : 500 мс.
pb.wtf



Скачать Конкорд: Аэропорт-79 через торрент http://i6.imageban.ru/out/2017/02/03/6e8461d77d198142aabd473f06cffd76.jpg Скачать фильм Конкорд: Аэропорт-79 через торрент бесплантно в хорошем качестве Описание: Для пилотов «Конкорда», как и для пассажиров, это самый обычный трансатлантический рейс из Вашингтона в Париж. Они еще не знают, ... 10 10 1
Info! Золотая раздача, скачанное не засчитывается.
Торрент: Зарегистрирован [2017-02-03 09:20] · скачан: 6 раз
Статус: √ проверено
Размер: 1.46 GB
Как cкачать? Как скачать Конкорд: Аэропорт-79 через торрент | qTorrent



Последний раз редактировалось: Один 777 (2017-02-03 12:59), всего редактировалось 1 раз


>> Регистрируемся здесь <<






Отзывы и комментарии о схеме читаем и пишем здесь: ---> Отзывы и комментарии о схеме

Новые благодарочки в телеграм довольных пользователей:
скриншот   скриншот   скриншот   скриншот   скриншот

03-02-2017 09:22 Конкорд: Аэропорт-79 Скачать торрент  

Скриншоты исчерпывающие pb.wtf



03-02-2017 09:28 Конкорд: Аэропорт-79 Скачать торрент  

А каким образом в этот фильм Данила Козловский пролез?pb.wtf



    Дорогой пользователь! Огромная просьба, поблагодарите релизера, оцените раздачу и оставьте свои комментарий, если Вы скачали Конкорд: Аэропорт-79 через торрент бесплатно! Внесите свою лепту в развитие PiratBit!
    Комментировать посты могут только пользователи прошедшие не сложную регистрацию
    Показать сообщения:    

    Конкорд: Аэропорт-79 через торрент
    Скачать бесплатно Конкорд: Аэропорт-79
    Конкорд: Аэропорт-79 скачать торрент
    Конкорд: Аэропорт-79 смотреть онлайн
    Cкачать фильм Конкорд: Аэропорт-79 бесплатно
    Конкорд: Аэропорт-79 скачать торрент в хорошем качестве
    Конкорд: Аэропорт-79 смотреть онлайн бесплатно в хорошем качестве


    Вы не можете начинать темы
    Вы не можете отвечать на сообщения
    Вы не можете редактировать свои сообщения
    Вы не можете удалять свои сообщения
    Вы не можете голосовать в опросах
    Вы не можете прикреплять файлы к сообщениям
    Вы можете скачивать файлы