Ссылка на приватное зеркало всего за 1$. Внимание количество ограничено!!!

iTunes

iTunes

iTunes

1

iTunes

iTunes

iTunes

iTunes

iTunes

30
pack

Новость дня

ВАЖНО

!!Акция!!

Alien_RageХит недели

RePack

Resident Evil 21

ИГРА 18+

pack

RePack

jed

!!Акция!!

Alien_Rage

RePack

fifa19

RePack

Assassins Creed: Odyssey

RePack

NEED FOR SPEED™ PAYBACK

4 сезон

9 сезон

Бесстыжие 9 сезон

Все сериалы

все сериалы на PB.wtf

RePack

FAR CRY 5
  

Пиковая дама: Черный обряд (Святослав Подгаевский) [2015 г., Ужасы, BDRip] (Лицензия) pb.wtf

Пиковая дама: Черный обряд через торрент pb.wtf

Размер: 1.46 GB | Добавлен: 3 года 3 мес. назад | Торрент скачан:237 раз
Скачать  

03-02-2017 13:12 Пиковая дама: Черный обряд Скачать торрент  

Пиковая дама: Черный обряд
Год выпуска: 2015
Страна: Россия
Жанр: Ужасы
Перевод: Не требуется [Лицензия]
Продолжительность: 01:32:56
Субтитры: нет

Режиссер: Святослав Подгаевский



В ролях: Алина Бабак, Игорь Хрипунов, Владимир Селезнев, Валерия Дмитриева, Сергей Походаев, Евгения Лоза, Валентин Садики, Мария Фомина, Максим Стоянов, Наталья Домерецкая

Описание: С древних времен считается, что любое зеркало может стать порталом в мир мертвых. Одним из старейших мистических ритуалов с зеркалом является обряд вызова Пиковой Дамы. Четверо подростков в шутку решают призвать ее, но даже не подозревают, на какие ужасы они обрекли себя и своих близких. Теперь мстительный призрак не остановится, пока не получит их души.

Качество: BDRip | Blu-ray GER
Формат: AVI
Видео кодек: XviD
Аудио кодек: AC3
Видео: XviD, 720x304, 24 fps, 1790 kbps
Аудио: AC3, 6 ch, 448 kbps , 48.0 KHz



General
Complete name : H:\релизы.торрентфайл\Pikovaya.dama.Chernyiy.obryad.2015.BDRip.1.46Gb.MegaPeer.avi
Format : AVI
Format/Info : Audio Video Interleave
File size : 1.46 GiB
Duration : 1h 32mn
Overall bit rate : 2 246 Kbps

Video
ID : 0
Format : MPEG-4 Visual
Format profile : Advanced Simple@L5
Format settings, BVOP : 1
Format settings, QPel : No
Format settings, GMC : No warppoints
Format settings, Matrix : Custom
Codec ID : XVID
Codec ID/Hint : XviD
Duration : 1h 32mn
Bit rate : 1 790 Kbps
Width : 720 pixels
Height : 304 pixels
Display aspect ratio : 2.35:1
Frame rate : 24.000 fps
Color space : YUV
Chroma subsampling : 4:2:0
Bit depth : 8 bits
Scan type : Progressive
Compression mode : Lossy
Bits/(Pixel*Frame) : 0.341
Stream size : 1.16 GiB (80%)
Writing library : XviD 73

Audio
ID : 1
Format : AC-3
Format/Info : Audio Coding 3
Mode extension : CM (complete main)
Format settings, Endianness : Big
Codec ID : 2000
Duration : 1h 32mn
Bit rate mode : Constant
Bit rate : 448 Kbps
Channel(s) : 6 channels
Channel positions : Front: L C R, Side: L R, LFE
Sampling rate : 48.0 KHz
Bit depth : 16 bits
Compression mode : Lossy
Stream size : 298 MiB (20%)
Alignment : Aligned on interleaves
Interleave, duration : 64 ms (1.54 video frames)
Interleave, preload duration : 192 ms
Title : BD GER

pb.wtf



Скачать Пиковая дама: Черный обряд через торрент http://pic1.kartinco.top/images/11/w5yyl.jpg Скачать фильм Пиковая дама: Черный обряд через торрент бесплантно в хорошем качестве Описание: С древних времен считается, что любое зеркало может стать порталом в мир мертвых. Одним из старейших мистических ритуалов с ... 9.2 10 12
Info! Золотая раздача, скачанное не засчитывается.
Торрент: Зарегистрирован [2017-02-03 13:12] · скачан: 237 раз
Статус: √ проверено
Размер: 1.46 GB
Как cкачать? Как скачать Пиковая дама: Черный обряд через торрент | qTorrent

% Раздел Тема Автор DL S | L
Наши фильмы (HD, WEB-DL 720p, 1080p) [ 7.16 GB ] Пиковая дама: Черный обряд [2015 BDRip 1080p] [GER Transfer] [] bober100 Скачать
1 | 0
R.G. Resident & PiratVoice - Фильмы, Видео [ 1.29 GB ] Пиковая дама: Черный обряд [2015 BDRip-AVС] Оригинальный [] R.G.Resident schultz Скачать
1 | 0
Наши фильмы (HD, WEB-DL 720p, 1080p) [ 3.82 GB ] Пиковая дама: Черный обряд [2015 BDRip 720p] potroks Скачать
1 | 0
Наши новые фильмы 2015 [ 1.46 GB ] Пиковая дама: Черный обряд [2015 BDRip] Оригинал [] Twi7ter Скачать
1 | 0
Наши фильмы (Blu-ray, BD-Remux, HDDVD) [ 17.95 GB ] Пиковая дама: Черный обряд [2015 Blu-ray GER] Russian Mafia Скачать
1 | 0
Наши фильмы (HD, WEB-DL 720p, 1080p) [ 3.52 GB ] Пиковая дама: Черный обряд [2015 WEB-DL 1080p [Русский] MeMoRiSe Скачать
1 | 0
Наши фильмы (HD, WEB-DL 720p, 1080p) [ 2.78 GB ] Пиковая дама: Черный обряд [2015 WEB-DL 720p [Русский] $-DRON-$ Скачать
1 | 0

28-11-2019 20:33  

Отключить всю рекламу на сайте

    Дорогой пользователь! Огромная просьба, поблагодарите релизера, оцените раздачу и оставьте свои комментарий, если Вы скачали Пиковая дама: Черный обряд через торрент бесплатно! Внесите свою лепту в развитие PiratBit!
    Комментировать посты могут только пользователи прошедшие не сложную регистрацию
    Показать сообщения:    

    Пиковая дама: Черный обряд через торрент
    Скачать бесплатно Пиковая дама: Черный обряд
    Пиковая дама: Черный обряд скачать торрент
    Пиковая дама: Черный обряд смотреть онлайн
    Cкачать фильм Пиковая дама: Черный обряд бесплатно
    Пиковая дама: Черный обряд скачать торрент в хорошем качестве
    Пиковая дама: Черный обряд смотреть онлайн бесплатно в хорошем качестве


    Вы не можете начинать темы
    Вы не можете отвечать на сообщения
    Вы не можете редактировать свои сообщения
    Вы не можете удалять свои сообщения
    Вы не можете голосовать в опросах
    Вы не можете прикреплять файлы к сообщениям
    Вы можете скачивать файлы