Ссылка на приватное зеркало нашего сайта всего за 1$. Внимание количество ограничено!!!

2 сезон

iTunes

1 сезон

1

2 сезон

2 сезон

iTunes

1 сезон

RePack

30

Новинка

ВАЖНО

ИГРА 18+

pack

RePack

MK11
pack

Забери бонус

RePack

jed

!!Акция!!

Alien_Rage

RePack

fifa19

RePack

Assassins Creed: Odyssey

RePack

NEED FOR SPEED™ PAYBACK

4 сезон

9 сезон

Бесстыжие 9 сезон

Все сериалы

все сериалы на PB.wtf

RePack

FAR CRY 5
  

Сотня / The 100 / Сезон: 4 / Серии 1-13 из 13 (Дин Уайт / Dean White, П.Дж. Пеше / P.J. Pesce, Майрзи Алмас / Mairzee Almas) [2017, США, фантастика, драма, WEB-DLRip-AVC] MVO [LostFilm] pb.wtf

Сотня через торрент pb.wtf

Размер: 9.29 GB | Добавлен: 3 года 5 мес. назад | Торрент скачан:367 раз
Скачать  

04-02-2017 01:20 Сотня Скачать торрент  


Сотня / The 100

«Выживание не то, кто вы есть. Это то кем вы станете»


  • Год выпуска: 2017
  • Страна: США
  • Жанр: фантастика, драма
  • Продолжительность: 00:42:41 (Серия)
  • Перевод: Профессиональный многоголосый закадровый [LostFilm]
  • Режиссер: Дин Уайт / Dean White, П.Дж. Пеше / P.J. Pesce, Майрзи Алмас / Mairzee Almas
  • В ролях:

    Элайза Тейлор (Clarke Griffin), Мари Авгеропулос (Octavia Blake), Боб Морли (Bellamy Blake), Томас МакДонелл (Finn Collins), Линдси Морган (Raven Reyes), Пейдж Турко (Dr. Abigail Griffin), Генри Йен Кьюсик (Councillor Marcus Kane), Исайя Вашингтон (Chancellor Thelonious Jaha), Девон Бостик (Jasper Jordan), Кристофер Ларкин (Monty Green), Рики Уиттл (Lincoln), Ричард Хэрмон (John Murphy)

  • Описание:
    Экранизация одноименного романа Касс Морган. После ста лет проведенных на орбите по окончании ядерной войны, руководство космической станции из-за перенаселения решает в качестве подопытных крыс отправить сотню малолетних подростков обратно на Землю, чтобы выяснить пригодна она для выживания или нет... Приземлившиеся 98 человек сразу делятся на две группировки - "умных и красивых" - пытающихся выжить и быдло. Первых меньшинство и они ломятся искать старый бункер с консервами, пока вторые радуются свежеприобретенной свободе на голодный желудок. Земля оправилась от войны, но не полностью - по ней бродят звери-мутанты, в реках обитают опасные хищники, а в лесах - кое что пострашнее...
  • Рейтинг:



  • Качество: WEB-DLRip-AVC
  • Формат: :MPEG-4
  • Видео кодек: AVC
  • Аудио кодек: AC-3
  • Видео: 2000 Кбит/сек, 1024*576 (16:9), в 23,976 (24000/1001) кадра/сек, AVC
  • Аудио №1: Русский 192 Кбит/сек, 48,0 КГц, 16 бит, 2 канала, AC-3
  • Аудио №2: Английский 192 Кбит/сек, 48,0 КГц, 16 бит, 2 канала, AC-3
  • Релиз от: GEKADOL

    Внимание! Раздача ведётся путём добавления новых серий; при каждом добавлении создаётся новый торрент. Чтобы начать докачку новой серии, пользователям необходимо сделать следующее:
    (1) остановить скачивание,
    (2) удалить старый торрент у себя из клиента (старые серии удалять не надо),
    (3) скачать новый торрент и запустить его у себя в клиенте вместо старого, при этом указать клиенту путь в старую папку куда и должно происходить скачивание новых серий.
    Ваш клиент при этом должен произвести хеширование (проверку) старой папки (если не производит сам - помогите ему сделать это), и будет докачивать только те серии которых у вас ещё нет. Старые серии при этом не удаляются, а продолжают раздаваться!
    Eсли вы уже удалили старые серии, то предотвратить повторную закачку старых серий можно, отжав галочку в соответствующих местах при запуске нового торрента. По возможности, желательно не удалять старые серии как можно дольше чтобы релизёр не столько продолжал раздавать старые серии, а смог сконцентрироваться на новых.

    Общее
    Полное имя : H:\THE 100 (Lostfilm S04)\The.Hundred.S04E01.WEB-DLRip-AVC.rus.LostFilm.TV.mp4
    Формат : MPEG-4
    Профиль формата : Base Media
    Идентификатор кодека : isom (isom/iso2/avc1/mp41)
    Размер файла : 705 Мбайт
    Продолжительность : 41 м. 13 с.
    Общий поток : 2393 Кбит/сек
    Программа кодирования : XviD4PSP 7.0.351 DAILY
    HDVideo : Yes
    encoding_info : MATROSKA / WEBM > MP4 Произвольный / H264 > X264 CBR 2000kbps HQ / AC3 > AC3 CBR 192kbps / AC3 > AC3 CBR 192kbps

    Видео
    Идентификатор : 1
    Формат : AVC
    Формат/Информация : Advanced Video Codec
    Профиль формата : High@L4.1
    Параметр CABAC формата : Да
    Параметр ReFrames формата : 4 кадра
    Идентификатор кодека : avc1
    Идентификатор кодека/Информация : Advanced Video Coding
    Продолжительность : 41 м. 13 с.
    Битрейт : 2000 Кбит/сек
    Ширина : 1024 пикселя
    Высота : 576 пикселей
    Соотношение сторон : 16:9
    Режим частоты кадров : Постоянный
    Частота кадров : 23,976 (24000/1001) кадра/сек
    Цветовое пространство : YUV
    Субдискретизация насыщенности : 4:2:0
    Битовая глубина : 8 бит
    Тип развёртки : Прогрессивная
    Бит/(Пиксели*Кадры) : 0.141
    Размер потока : 591 Мбайт (84%)
    Библиотека кодирования : x264 core 148 r2762M 90a61ec
    Настройки программы : cabac=1 / ref=3 / deblock=1:-1:-1 / analyse=0x3:0x133 / me=hex / subme=7 / psy=1 / psy_rd=1.00:0.20 / mixed_ref=1 / me_range=16 / chroma_me=1 / trellis=1 / 8x8dct=1 / cqm=0 / deadzone=21,11 / fast_pskip=1 / chroma_qp_offset=-3 / threads=5 / lookahead_threads=1 / sliced_threads=0 / nr=0 / decimate=1 / interlaced=0 / bluray_compat=0 / constrained_intra=0 / bframes=3 / b_pyramid=2 / b_adapt=2 / b_bias=0 / direct=3 / weightb=1 / open_gop=0 / weightp=2 / keyint=230 / keyint_min=23 / scenecut=40 / intra_refresh=0 / rc_lookahead=40 / rc=cbr / mbtree=1 / bitrate=2000 / ratetol=1.0 / qcomp=0.60 / qpmin=0 / qpmax=69 / qpstep=4 / vbv_maxrate=2000 / vbv_bufsize=30000 / nal_hrd=none / filler=0 / ip_ratio=1.40 / aq=1:1.00

    Аудио #1
    Идентификатор : 2
    Формат : AC-3
    Формат/Информация : Audio Coding 3
    Расширение режима : CM (complete main)
    Параметр Endianness формата : Big
    Идентификатор кодека : ac-3
    Продолжительность : 41 м. 13 с.
    Вид битрейта : Постоянный
    Битрейт : 192 Кбит/сек
    Каналы : 2 канала
    Расположение каналов : Front: L R
    Частота : 48,0 КГц
    Частота кадров : 31,250 кадров/сек (1536 spf)
    Битовая глубина : 16 бит
    Метод сжатия : С потерями
    Размер потока : 56,6 Мбайт (8%)
    Default : Да
    Alternate group : 1

    Аудио #2
    Идентификатор : 3
    Формат : AC-3
    Формат/Информация : Audio Coding 3
    Расширение режима : CM (complete main)
    Параметр Endianness формата : Big
    Идентификатор кодека : ac-3
    Продолжительность : 41 м. 13 с.
    Вид битрейта : Постоянный
    Битрейт : 192 Кбит/сек
    Каналы : 2 канала
    Расположение каналов : Front: L R
    Частота : 48,0 КГц
    Частота кадров : 31,250 кадров/сек (1536 spf)
    Битовая глубина : 16 бит
    Метод сжатия : С потерями
    Размер потока : 56,6 Мбайт (8%)
    Default : Нет
    Alternate group : 1



    Скриншоты:
    скриншот   скриншот   скриншот   скриншот   скриншот   скриншот   скриншот  
    скриншот  

    Раздача ведётся путём добавления новых серий. Добавлена 13 серия (27.05.2017).Просьба перекачать торрент файл.


    pb.wtf



  • Скачать Сотня через торрент http://pic1.kartinco.top/images/10/cb9qq.jpg Скачать фильм Сотня через торрент бесплантно в хорошем качестве Описание: Экранизация одноименного романа Касс Морган. После ста лет проведенных на орбите по окончании ядерной войны, руководство ... 9.8 10 25
    Info! Золотая раздача, скачанное не засчитывается.
    Торрент: Зарегистрирован [2017-05-27 02:23] · скачан: 367 раз
    Статус: √ проверено
    Размер: 9.29 GB
    Как cкачать? Как скачать Сотня через торрент | qTorrent

    % Раздел Тема Автор DL S | L
    Зарубежные сериалы [ 46.5 GB ] Сотня / 100 / The 100 / Сезон: 4 / Серии: 1-13 из 13 [2017 BDRip 1080p] MVO [LostFilm] bober100 Скачать
    1 | 0
    Зарубежные сериалы [ 10.5 GB ] Сотня / The 100 / Сезон: 4 / Серии 1-13 из 13 [2017 WEB-DLRip-AVC] MVO [BaibaKo] GEKADOL Скачать
    1 | 0
    R.G.Resident - Сериалы, Видео [ 10.52 GB ] Сотня / The 100 / Сезон: 4 / Серии 1 - 13 из 13 [2017 WEB-DLRip-AVC] MVO [AlexFilm] R.G.Resident schultz Скачать
    1 | 0
    Зарубежные сериалы [ 6.35 GB ] Сотня / The 100 / Сезон 4 / Серии 1-13 из 13 [2017 экранизация WEB-DLRip] MVO [NewStudio] bober100 Скачать
    1 | 0
    Зарубежные сериалы [ 23.35 GB ] Сотня / The 100 / Сезон: 4 / Серии 1-13 из 13 [2017 WEB-DL 1080p] MVO [BaibaKo] GEKADOL Скачать
    1 | 0
    Зарубежные сериалы [ 23.04 GB ] Сотня / The 100 / Сезон: 4 / Серии 1-13 из 13 [2017 WEB-DLRip 1080р] MVO [LostFilm] GEKADOL Скачать
    1 | 0
    Зарубежные сериалы [ 6.35 GB ] Сотня / 100 / The 100 / Сезон 4 / Серии: 1-13 из 13 [2017 WEB-DLRip] MVO God_Slayer Скачать
    1 | 0


    Последний раз редактировалось: GEKADOL (2017-05-27 02:23), всего редактировалось 6 раз(а)

    28-11-2019 20:33  

    Отключить всю рекламу на сайте

    29-04-2017 20:07 Сотня Скачать торрент  

    Спасибо держи золото=)pb.wtf



    06-05-2017 02:16 Сотня Скачать торрент  

    dokmaris писал(а):

    Спасибо держи золото=)

    pb.wtf



    27-05-2017 16:45 Сотня Скачать торрент  

    GEKADOL, спасибо забираю! pb.wtf



    28-05-2017 10:08 Сотня Скачать торрент  

    каеф сериал)pb.wtf



    29-06-2017 14:04 Сотня Скачать торрент  

    Хороший сериал.pb.wtf



      Дорогой пользователь! Огромная просьба, поблагодарите релизера, оцените раздачу и оставьте свои комментарий, если Вы скачали Сотня через торрент бесплатно! Внесите свою лепту в развитие PiratBit!
      Комментировать посты могут только пользователи прошедшие не сложную регистрацию
      Показать сообщения:    

      Сотня через торрент
      Скачать бесплатно Сотня
      Сотня скачать торрент
      Сотня смотреть онлайн
      Cкачать фильм Сотня бесплатно
      Сотня скачать торрент в хорошем качестве
      Сотня смотреть онлайн бесплатно в хорошем качестве


      Вы не можете начинать темы
      Вы не можете отвечать на сообщения
      Вы не можете редактировать свои сообщения
      Вы не можете удалять свои сообщения
      Вы не можете голосовать в опросах
      Вы не можете прикреплять файлы к сообщениям
      Вы можете скачивать файлы