Ссылка на приватное зеркало всего за 1$. Внимание количество ограничено!!!

OK

1+1

iTunes

мы

OK

1

WEB-DLRip

Джокер

Пифагор

Ведьмак / The Witcher сериал

Лицензия

ПШазам

ОК

Оно 2

iTunes

30
pack

Вам бонус

ВАЖНО

!!Акция!!

Alien_RageХит недели

RePack

Resident Evil 21

ИГРА 18+

pack

RePack

jed

!!Акция!!

Alien_Rage

RePack

fifa19

RePack

Assassins Creed: Odyssey

RePack

NEED FOR SPEED™ PAYBACK

4 сезон

9 сезон

Бесстыжие 9 сезон

Все сериалы

все сериалы на PB.wtf

RePack

FAR CRY 5
  

Сотня / 100 / The 100 / Сезон 4 / Серии: 1-13 из 13 (Дин Уайт) [2017 г., фантастика, WEB-DLRip] MVO (LostFilm) pb.wtf

Сотня через торрент pb.wtf

Раздают: 1 [ 16 KB/s ]
Размер: 6.35 GB | Добавлен: 2 года 7 мес. назад | Торрент скачан:351 раз
Скачать  

04-02-2017 04:18 Сотня Скачать торрент  


Сотня | The 100
«Выживание не то, кто вы есть. Это то кем вы станете»
• Год выпуска: 2017
• Страна: США
• Жанр: фантастика
• Продолжительность: ~ 00:43:00
• Перевод: Профессиональный (многоголосый закадровый) | LostFilm
• Режиссёр: Дин Уайт, Джон Беринг, Милан Чейлов
• В ролях: Элайза Тейлор / Eliza Taylor (Clarke Griffin), Мари Авгеропулос / Marie Avgeropoulos (Octavia Blake), Боб Морли / Bob Morley (Bellamy Blake), Генри Йен Кьюсик / Henry Ian Cusick (Councillor Marcus Kane), Исайя Вашингтон / Isaiah Washington (Chancellor Thelonious Jaha), Пейдж Турко / Paige Turco (Dr. Abigail Griffin), Рики Уиттл / Ricky Whittle (Lincoln), Ричард Хэрмон / Richard Harmon (John Murphy)

• Описание: События в сериале начинают разворачиваться по прошествии девяносто семи лет после того как всю цивилизацию уничтожила страшная атомная война. Высоко в космосе на орбите Земли летает большой космический корабль, именно здесь находятся те, кто выжил после страшной катастрофы. Они единственные кто пережил этот ужасный катаклизм который устроило человечество. Именно с этого последнего пристанища людей на Землю отправляют космический челнок на котором находятся сто малолетних преступников…

• Качество: WEB-DLRip | чистый видеоряд |
• Формат: AVI
•Видео кодек: XviD
•Аудио кодек: MP3
• Видео: 720x400(16:9) 23,976 fps, ~1450 kbps
• Аудио #1: MP3, 48 kHz, 2 ch, 128 kbps - Rus
• Аудио #2: MP3, 48 kHz, 2 ch, 128 kbps - Eng
Раздача ведётся путём добавления новых серий; при каждом добавлении создаётся новый торрент. Чтобы начать докачку новой серии, пользователям необходимо сделать следующее:
1. Остановить скачивание.
2. Удалить старый торрент у себя из клиента (старые серии удалять не надо).
3. Скачать новый торрент и запустить его у себя в клиенте вместо старого, при этом указать клиенту путь в старую папку куда и должно происходить скачивание новых серий.
4. Ваш клиент при этом должен произвести хеширование (проверку) старой папки (если не производит сам - помогите ему сделать это), и будет докачивать только те серии которых у вас ещё нет. Старые серии при этом не удаляются, а продолжают раздаваться!
5. Eсли вы уже удалили старые серии, то предотвратить повторную закачку старых серий можно, отжав галочку в соответствующих местах при запуске нового торрента.
Полное имя : D:\Dowload\THE 100 (S04)\The.100.S04E01.XviD.lostfilm.(qqss44).avi
Формат : AVI
Формат/Информация : Audio Video Interleave
Размер файла : 500 Мбайт
Продолжительность : 41 м. 30 с.
Общий поток : 1685 Кбит/сек
Программа кодирования : VirtualDubMod 1.5.10.3 | www.virtualdub-fr.org || (build 2550/release)
Библиотека кодирования : VirtualDubMod build 2550/release

Видео
Идентификатор : 0
Формат : MPEG-4 Visual
Профиль формата : Advanced Simple@L5
Параметр BVOP формата : 2
Параметр QPel формата : Нет
Параметр GMC формата : Без точки перехода
Параметр матрицы формата : Выборочная
Идентификатор кодека : XVID
Идентификатор кодека/Подсказка : XviD
Продолжительность : 41 м. 30 с.
Битрейт : 1415 Кбит/сек
Ширина : 720 пикселей
Высота : 400 пикселей
Соотношение сторон : 16:9
Частота кадров : 23,976 (24000/1001) кадра/сек
Цветовое пространство : YUV
Субдискретизация насыщенности : 4:2:0
Битовая глубина : 8 бит
Тип развёртки : Прогрессивная
Метод сжатия : С потерями
Бит/(Пиксели*Кадры) : 0.205
Размер потока : 420 Мбайт (84%)
Библиотека кодирования : XviD 73

Аудио #1
Идентификатор : 1
Формат : MPEG Audio
Версия формата : Version 1
Профиль формата : Layer 3
Режим : Joint stereo
Расширение режима : MS Stereo
Идентификатор кодека : 55
Идентификатор кодека/Подсказка : MP3
Продолжительность : 41 м. 30 с.
Вид битрейта : Постоянный
Битрейт : 128 Кбит/сек
Каналы : 2 канала
Частота : 48,0 КГц
Метод сжатия : С потерями
Размер потока : 38,0 Мбайт (8%)
Выравнивание : Соединение по промежуткам
Продолжительность промежутка : 42 мс. (1,00 видеокадр)
Время предзагрузки промежутка : 504 мс.

Аудио #2
Идентификатор : 2
Формат : MPEG Audio
Версия формата : Version 1
Профиль формата : Layer 3
Режим : Joint stereo
Расширение режима : MS Stereo
Идентификатор кодека : 55
Идентификатор кодека/Подсказка : MP3
Продолжительность : 41 м. 30 с.
Вид битрейта : Постоянный
Битрейт : 128 Кбит/сек
Каналы : 2 канала
Частота : 48,0 КГц
Метод сжатия : С потерями
Размер потока : 38,0 Мбайт (8%)
Выравнивание : Соединение по промежуткам
Продолжительность промежутка : 42 мс. (1,00 видеокадр)
Время предзагрузки промежутка : 504 мс.


[29/05/17] Добавлены 6-13 серии! Обновите торрент-файл.
Все 3 сезона от LostFilma`apb.wtf



Скачать Сотня через торрент http://i90.fastpic.ru/big/2017/0204/39/e1cad32ecfe7f88d5ba7cfcda416dc39.png Скачать фильм Сотня через торрент бесплантно в хорошем качестве Описание: События в сериале начинают разворачиваться по прошествии девяносто семи лет после того как всю цивилизацию уничтожила страшная ... 9.3 10 13
Торрент: Зарегистрирован [2017-05-29 20:18] · скачан: 351 раз
Статус: √ проверено
Размер: 6.35 GB
Как cкачать? Как скачать Сотня через торрент | qTorrent

% Раздел Тема Автор DL S | L
Зарубежные сериалы [ 46.5 GB ] Сотня / 100 / The 100 / Сезон: 4 / Серии: 1-13 из 13 [2017 BDRip 1080p] MVO [LostFilm] bober100 Скачать
1 | 0
Зарубежные сериалы [ 10.5 GB ] Сотня / The 100 / Сезон: 4 / Серии 1-13 из 13 [2017 WEB-DLRip-AVC] MVO [BaibaKo] GEKADOL Скачать
1 | 0
Зарубежные сериалы [ 9.29 GB ] Сотня / The 100 / Сезон: 4 / Серии 1-13 из 13 [2017 WEB-DLRip-AVC] MVO [LostFilm] GEKADOL Скачать
3 | 0
R.G.Resident - Сериалы, Видео [ 10.52 GB ] Сотня / The 100 / Сезон: 4 / Серии 1 - 13 из 13 [2017 WEB-DLRip-AVC] MVO [AlexFilm] R.G.Resident schultz Скачать
1 | 0
Зарубежные сериалы [ 6.35 GB ] Сотня / The 100 / Сезон 4 / Серии 1-13 из 13 [2017 экранизация WEB-DLRip] MVO [NewStudio] bober100 Скачать
1 | 0
Зарубежные сериалы [ 23.35 GB ] Сотня / The 100 / Сезон: 4 / Серии 1-13 из 13 [2017 WEB-DL 1080p] MVO [BaibaKo] GEKADOL Скачать
1 | 0
Зарубежные сериалы [ 23.04 GB ] Сотня / The 100 / Сезон: 4 / Серии 1-13 из 13 [2017 WEB-DLRip 1080р] MVO [LostFilm] GEKADOL Скачать
1 | 0

28-11-2019 20:33  

Отключить всю рекламу на сайте

    Дорогой пользователь! Огромная просьба, поблагодарите релизера, оцените раздачу и оставьте свои комментарий, если Вы скачали Сотня через торрент бесплатно! Внесите свою лепту в развитие PiratBit!
    Комментировать посты могут только пользователи прошедшие не сложную регистрацию
    Показать сообщения:    

    Сотня через торрент
    Скачать бесплатно Сотня
    Сотня скачать торрент
    Сотня смотреть онлайн
    Cкачать фильм Сотня бесплатно
    Сотня скачать торрент в хорошем качестве
    Сотня смотреть онлайн бесплатно в хорошем качестве


    Вы не можете начинать темы
    Вы не можете отвечать на сообщения
    Вы не можете редактировать свои сообщения
    Вы не можете удалять свои сообщения
    Вы не можете голосовать в опросах
    Вы не можете прикреплять файлы к сообщениям
    Вы можете скачивать файлы