2 сезон

iTunes

MVO

1

2 сезон

iTunes

iTunes

1 сезон

RePack

30

Новинка

ВАЖНО

ИГРА 18+

pack

RePack

MK11
pack

Легкие деньги

RePack

jed

RePack

fifa19

RePack

RDR2

RePack

NEED FOR SPEED™ PAYBACK

4 сезон

9 сезон

Бесстыжие 9 сезон

Все сериалы

все сериалы на PB.wtf

RePack

FAR CRY 5

Anonymous, добрый вечер, мы не успеваем собрать деньги на оплату серверов за декабрь и январь, помогите нам пожалуйста в это трудное время. В качестве благодарности мы отключим Вам всю рекламу на сайте (укажите свой ник в строку Ваше имя)!

×
  
Magnet ссылка

Макс Стил / Max Steel (Стюарт Хендлер ) [2016, фантастика, боевик, приключения, HDRip] Дубляж - [Лицензия / iTunes] pb.wtf

Макс Стил через торрент pb.wtf

Раздают: 1 [ 0 KB/s ]
Размер: 1.37 GB | Добавлен: 3 года 11 мес. назад | Торрент скачан:973 раза
Скачать  

04-02-2017 06:22 Макс Стил Скачать торрент  

Макс Стил / Max Steel

Год выпуска: 2016
Страна: Великобритания, США
Жанр: фантастика, боевик, приключения
Продолжительность: 01:32:27
Перевод: Дубляж - [Лицензия / iTunes]
Режиссер: Стюарт Хендлер
В ролях:
Бен Уинчелл (Max McGrath), Джош Бренер (Steel, озвучка), Мария Белло (Molly McGrath), Энди Гарсиа (Dr. Miles Edwards), Ана Виллафейн (Sofia Martinez), Майк Дойл (Jim McGrath), Филлип ДеВона (Harkins), Билли Слотер (Murphy), Эл Митчелл (Dr. Smith), Лоуренс Као (Dr. Lee), Бретт Джентиле (Mr. Quinn), Джани Уоллес (Student / Thirsty Kid)
Описание:
Когда подросток Макс МакГрат обнаруживает, что его тело может генерировать наиболее мощную энергию во Вселенной, ему приходится встретиться с единственным существом, способным совладать с такой энергией - таинственным техноорганическим инопланетянином по имени Стил.
Рейтинг:

MPAA: PG-13 - Детям до 13 лет просмотр не желателен
Премьера (мир): 13 октября 2016
Премьера (РФ): 27 октября 2016, «Централ Партнершип»
Качество: HDRip
Формат: AVI
Видео: XviD, 720x304 (2.35:1), 1722 kbps, 23,976 fps, 0,328 bpp
Аудио: AC3 / 5.1 / 48 kHz / 384 kbps /
General
Complete name : Max.Steel.2016.D.HDRip.1400MB.avi
Format : AVI
Format/Info : Audio Video Interleave
File size : 1.37 GiB
Duration : 1 h 32 min
Overall bit rate : 2 116 kb/s
Writing application : VirtualDubMod 1.5.10.2 (build 2540/release)
Writing library : VirtualDubMod build 2540/release

Video
ID : 0
Format : MPEG-4 Visual
Format profile : Advanced Simple@L5
Format settings, BVOP : 2
Format settings, QPel : No
Format settings, GMC : No warppoints
Format settings, Matrix : Default (MPEG)
Codec ID : XVID
Codec ID/Hint : XviD
Duration : 1 h 32 min
Bit rate : 1 723 kb/s
Width : 720 pixels
Height : 304 pixels
Display aspect ratio : 2.35:1
Frame rate : 23.976 (24000/1001) FPS
Color space : YUV
Chroma subsampling : 4:2:0
Bit depth : 8 bits
Scan type : Progressive
Compression mode : Lossy
Bits/(Pixel*Frame) : 0.328
Stream size : 1.11 GiB (81%)
Writing library : XviD 1.2.1 (UTC 2008-12-04)

Audio
ID : 1
Format : AC-3
Format/Info : Audio Coding 3
Mode extension : CM (complete main)
Format settings, Endianness : Big
Codec ID : 2000
Duration : 1 h 32 min
Bit rate mode : Constant
Bit rate : 384 kb/s
Channel(s) : 6 channels
Channel positions : Front: L C R, Side: L R, LFE
Sampling rate : 48.0 kHz
Frame rate : 31.250 FPS (1536 spf)
Compression mode : Lossy
Stream size : 254 MiB (18%)
Alignment : Split accross interleaves
Interleave, duration : 42 ms (1.00 video frame)
Interleave, preload duration : 500 ms


Скриншотыскриншот   скриншот   скриншот   скриншот   скриншот   скриншот  pb.wtf



Скачать Макс Стил через торрент http://i89.fastpic.ru/big/2017/0204/5d/3d4baf272252127e6912425f6caad15d.png Скачать фильм Макс Стил через торрент бесплантно в хорошем качестве Описание: Когда подросток Макс МакГрат обнаруживает, что его тело может генерировать наиболее мощную энергию во Вселенной, ему приходится ... 8.7 10 20
Info! Золотая раздача, скачанное не засчитывается.
Торрент: Зарегистрирован [2017-02-04 06:22] · скачан: 973 раз
Статус: √ проверено
Размер: 1.37 GB
Как cкачать? Как скачать Макс Стил через торрент | UTorrent

% Раздел Тема Автор DL S | L
Фильмы (Blu-ray, BD-Remux, HDDVD) [ 20.55 GB ] Макс Стил / Max Steel [2016 BD Remux 1080p] MVO bober100 Скачать
1 | 0
Фильмы [HD 720p, 1080p] (Хороший звук DUB, MVO) [ 4.75 GB ] Макс Стил / Max Steel [2016 BDRip 720p] - sheker187 Скачать
1 | 0
Фильмы [HD 720p, 1080p] (Хороший звук DUB, MVO) [ 10.59 GB ] Макс Стил / Max Steel [2016 BDRip 1080p] - sheker187 Скачать
1 | 0
Фильмы 2016 [DVDrip, WEB-DLRip, HDrip] (DUB, MVO) [ 1.42 GB ] Макс Стил / Max Steel [2016 BDRip] - Twi7ter Скачать
1 | 0
R.G. Resident & PiratVoice - Фильмы, Видео [ 1.69 GB ] Макс Стил / Max Steel [2016 BDRip-AVC] - R.G.Resident schultz Скачать
1 | 0
Фильмы 2016 [DVDrip, WEB-DLRip, HDrip] (DUB, MVO) [ 699 MB ] Макс Стил / Max Steel [2016 HDRip] - Sherif Скачать
1 | 0

28-11-2019 20:33  

Отключить всю рекламу на сайте

    Дорогой пользователь! Огромная просьба, поблагодарите релизера, оцените раздачу и оставьте свои комментарий, если Вы скачали Макс Стил через торрент бесплатно! Внесите свою лепту в развитие PiratBit!
    Комментировать посты могут только пользователи прошедшие не сложную регистрацию
    Показать сообщения:    

    Макс Стил через торрент
    Скачать бесплатно Макс Стил
    Макс Стил скачать торрент
    Макс Стил смотреть онлайн
    Cкачать фильм Макс Стил бесплатно
    Макс Стил скачать торрент в хорошем качестве
    Макс Стил смотреть онлайн бесплатно в хорошем качестве


    Вы не можете начинать темы
    Вы не можете отвечать на сообщения
    Вы не можете редактировать свои сообщения
    Вы не можете удалять свои сообщения
    Вы не можете голосовать в опросах
    Вы не можете прикреплять файлы к сообщениям
    Вы можете скачивать файлы